<?xml version="1.0" standalone="no"?>
<!DOCTYPE svg PUBLIC "-//W3C//DTD SVG 1.1//EN" "http://www.w3.org/Graphics/SVG/1.1/DTD/svg11.dtd" >
<svg xmlns="http://www.w3.org/2000/svg">
<metadata>Generated by IcoMoon</metadata>
<defs>
<font id="icomoon" horiz-adv-x="1024">
<font-face units-per-em="1024" ascent="960" descent="-64" />
<missing-glyph horiz-adv-x="1024" />
<glyph unicode="&#x20;" horiz-adv-x="512" d="" />
<glyph unicode="&#xe900;" glyph-name="casino" d="M528.599 392.684c-9.001 9.841-24.626 9.754-33.49-0.323l-128.046-145.495c-3.614-4.111-5.608-9.395-5.608-14.868 0-5.468 1.994-10.752 5.608-14.863l128.046-145.5c8.838-10.045 24.454-10.204 33.49-0.323l133.105 145.5c7.864 8.596 7.864 21.78 0 30.377l-133.105 145.495zM444.5 832c-52.132 0-90-43.512-90-96.477 0-67.162 62.046-108.643 142.683-179.205 4.102-3.589 9.367-5.567 14.817-5.567 5.448 0 10.716 1.978 14.817 5.567 80.64 70.564 142.684 112.057 142.684 179.203 0 52.969-37.873 96.479-89.999 96.479-26.609 0-49.828-11.693-67.502-33.9-17.673 22.207-40.891 33.9-67.5 33.9zM353 376.003c49.626 0 90 40.371 90 89.997 0 41.879-28.75 77.168-67.549 87.165 1.777 49.991-38.709 92.835-89.951 92.835-51.24 0-91.728-42.845-89.95-92.835-38.799-9.997-67.55-45.286-67.55-87.165 0-49.626 40.374-89.997 90-89.997 15.806-0.015 31.333 4.163 45 12.099v-57.103h-22.5c-12.426 0-22.5-10.071-22.5-22.497s10.074-22.502 22.5-22.502h90c12.426 0 22.5 10.076 22.5 22.502s-10.074 22.497-22.5 22.497h-22.5v57.103c13.667-7.936 29.194-12.114 45-12.099zM753.316 646.057c-4.101 3.589-9.364 5.566-14.817 5.566-5.448 0-10.711-1.978-14.817-5.566-80.64-70.564-142.679-112.057-142.679-179.205 0-52.972 37.868-96.476 89.999-96.476 16.471 0 31.636 4.49 45 13.174v-52.552h-22.502c-12.426 0-22.497-10.071-22.497-22.497s10.071-22.502 22.497-22.502h89.999c12.426 0 22.502 10.076 22.502 22.502s-10.076 22.497-22.502 22.497h-22.497v52.552c13.363-8.684 28.529-13.174 45-13.174 52.132 0 89.999 43.51 89.999 96.476 0 67.163-62.044 108.644-142.684 179.205z" />
<glyph unicode="&#xe901;" glyph-name="game-shows" d="M512.015 140.012c-38.995 0-76.947 6.789-112.505 19.809v-50.806h-65.994v-45h356.998v45h-65.997v50.806c-35.558-13.020-73.508-19.809-112.502-19.809zM421.288 466.588c0 4.36 0.309 8.652 0.908 12.85l-178.188 73.807c-8.821-27.361-13.571-56.499-13.571-86.657 0-30.215 4.784-59.327 13.632-86.632l178.125 73.782c-0.604 4.257-0.906 8.551-0.906 12.851zM439.456 412.18l-178.113-73.779c26.968-52.521 69.964-95.519 122.486-122.486l73.777 178.115c-6.872 5.166-12.982 11.274-18.15 18.15zM524.861 376.771c-8.52-1.213-17.175-1.213-25.698 0l-73.782-178.125c27.303-8.847 56.419-13.635 86.634-13.635 30.213 0 59.325 4.787 86.63 13.635l-73.784 178.125zM457.606 539.145l-73.85 178.293c-52.867-27-95.723-70.121-122.546-122.609l178.246-73.834c5.168 6.873 11.277 12.983 18.15 18.15zM512.015 420.859c25.252 0 45.722 20.475 45.722 45.728 0 25.254-20.47 45.726-45.722 45.726-25.255 0-45.728-20.472-45.728-45.726 0-25.253 20.472-45.728 45.728-45.728zM566.42 394.010l73.779-178.109c52.521 26.967 95.519 69.965 122.486 122.486l-178.109 73.779c-5.171-6.876-11.279-12.984-18.156-18.156zM584.571 520.978l178.248 73.832c-26.824 52.487-69.678 95.609-122.542 122.609l-73.856-178.291c6.876-5.167 12.984-11.277 18.15-18.15zM461.862 743.681c-12.36-2.21-24.558-5.245-36.512-9.085l73.816-178.206c8.524 1.212 17.176 1.212 25.701 0l73.815 178.204c-11.955 3.841-24.156 6.877-36.516 9.085l-50.15-43.807-50.153 43.809zM602.742 466.571c0-4.361-0.312-8.652-0.911-12.851l178.125-73.78c8.852 27.3 13.635 56.417 13.635 86.631 0 30.158-4.746 59.296-13.573 86.657l-178.186-73.808c0.599-4.197 0.911-8.488 0.911-12.849zM512.015 759.623l51.415 44.91v27.468h-102.831v-27.468l51.416-44.91z" />
<glyph unicode="&#xe902;" glyph-name="fan-tan" d="M839.752 571.75c31.063 0 56.248 25.184 56.248 56.25s-25.185 56.25-56.248 56.25c-31.068 0-56.253-25.184-56.253-56.25s25.185-56.25 56.253-56.25zM839.752 391.752c31.063 0 56.248 25.18 56.248 56.248 0 31.066-25.185 56.25-56.248 56.25-31.068 0-56.253-25.184-56.253-56.25 0-31.068 25.185-56.248 56.253-56.248zM659.748 391.752c31.068 0 56.253 25.18 56.253 56.248 0 31.066-25.185 56.25-56.253 56.25-31.063 0-56.248-25.184-56.248-56.25 0-31.068 25.185-56.248 56.248-56.248zM659.748 571.75c31.068 0 56.253 25.184 56.253 56.25s-25.185 56.25-56.253 56.25c-31.063 0-56.248-25.184-56.248-56.25s25.185-56.25 56.248-56.25zM150.5 322.002h360c12.426 0 22.502 10.071 22.502 22.497v232.501c0 62.132-50.371 112.5-112.502 112.5h-180c-62.132 0-112.5-50.369-112.5-112.5v-232.501c0-12.426 10.074-22.497 22.5-22.497zM420.5 734.5c24.142 0 47.030-5.467 67.5-15.217v60.217c0 12.426-10.074 22.5-22.5 22.5h-270c-12.426 0-22.5-10.074-22.5-22.5v-60.217c20.47 9.75 43.357 15.217 67.5 15.217h180zM873.062 183.107l-723.002-14.121c-12.252-0.236-22.061-10.24-22.061-22.492v-15.872c0-12.257 9.808-22.257 22.061-22.497l723.002-14.121c12.595-0.246 22.938 9.897 22.938 22.497v44.114c0 12.595-10.342 22.743-22.938 22.492z" />
<glyph unicode="&#xe903;" glyph-name="dragon-tiger" d="M347.5 248.556v53.514l-90.855 45.43-35.319 194.407-93.325 28.74c0 0-0.87-76.632 55.354-143.961l-47.979-14.52c0.002 0 57.501-155.5 212.124-163.61zM888.622 412.165l-47.98 14.52c56.228 67.329 55.357 143.961 55.357 143.961l-93.327-28.74-35.318-194.407-90.854-45.43v-53.514c154.604 8.11 212.122 163.61 212.122 163.61zM611.476 769.553c43.172-10.251 80.758-25.839 111.012-41.45 24.248 50.613 68.122 103.897 68.122 103.897-92.329 0-148.291-33.805-179.133-62.447zM301.514 728.103c30.255 15.612 67.841 31.2 111.012 41.45-30.846 28.641-86.806 62.447-179.132 62.447 0 0 43.872-53.284 68.121-103.897zM300.933 617.945c22.999-24.833 54.133-41.051 87.664-45.669l6.326-0.872c45.669-6.289 86.965-28.564 117.078-62.436 30.111 33.871 71.409 56.146 117.074 62.436l6.333 0.872c33.531 4.618 64.66 20.836 87.66 45.669l33.93 36.628c-37.038 26.463-128.44 81.826-244.997 81.826-116.554 0-207.958-55.364-244.993-81.826l33.926-36.628zM631.485 214.124l-52.623-33.352-24.090 38.006 76.713 48.62v62.5l95.601 47.805 40.315 221.923-11.336-12.242c-30.054-32.445-70.733-53.635-114.54-59.67l-6.328-0.871c-43.049-5.928-81.019-30.415-104.177-67.183l-19.038-30.229-19.038 30.229c-23.157 36.768-61.129 61.255-104.176 67.183l-6.326 0.871c-43.812 6.033-84.491 27.225-114.542 59.67l-11.338 12.242 40.317-221.923 95.602-47.805v-62.5l76.713-48.62-24.090-38.006-52.623 33.352v-30.602c0-65.997 53.503-119.501 119.502-119.501 66.002 0 119.501 53.504 119.501 119.501v30.602zM644.844 475.941l17.219-41.575-66.243-27.438-17.219 41.575 66.243 27.438zM361.902 434.365l17.22 41.575 66.243-27.438-17.22-41.575-66.243 27.438z" />
<glyph unicode="&#xe904;" glyph-name="poker" d="M483.589 722.623l-75.62 79.171c-8.993 9.418-21.117 14.77-34.137 15.067-13.047 0.309-25.375-4.492-34.79-13.486l-227.967-217.746c-9.417-8.994-14.768-21.117-15.066-34.137s4.492-25.374 13.486-34.788l147.375-154.295v262.714c0 53.762 43.739 97.501 97.501 97.501h129.218zM891.228 717.004l-305.577 77.489c-12.626 3.206-25.738 1.296-36.931-5.366-11.187-6.663-19.113-17.284-22.313-29.903l-9.277-36.6h152.494c53.76 0 97.5-43.739 97.5-97.501v-485.075c5.228 1.116 10.24 3.082 14.833 5.816 11.187 6.666 19.113 17.285 22.313 29.906l122.23 481.997c6.605 26.057-9.216 52.631-35.272 59.238zM669.624 673.875h-315.252c-26.881 0-48.75-21.869-48.75-48.75v-497.253c0-26.88 21.869-48.748 48.75-48.748h315.252c26.88 0 48.748 21.868 48.748 48.748v497.253c0 26.881-21.868 48.75-48.748 48.75zM420.998 582.873c13.462 0 24.375-10.914 24.375-24.375s-10.913-24.375-24.375-24.375c-13.462 0-24.375 10.914-24.375 24.375s10.914 24.375 24.375 24.375zM511.998 261.125c-5.998-0.005-11.785 2.202-16.252 6.205l-72.685 65.019c-0.164 0.148-0.323 0.297-0.484 0.445-18.237 17.219-27.010 43.264-23.469 69.668 3.367 25.108 17.669 46.661 38.259 57.649 10.002 5.325 20.566 8.021 31.419 8.021 16.465 0 31.514-6.273 43.211-16.782 11.696 10.509 26.744 16.782 43.21 16.782 10.854 0 21.417-2.694 31.401-8.011 20.608-10.998 34.908-32.545 38.277-57.659 3.543-26.404-5.233-52.444-23.465-69.668-0.159-0.148-0.323-0.297-0.486-0.445l-72.684-65.019c-4.465-4.004-10.255-6.216-16.253-6.205zM602.998 170.127c-13.46 0-24.376 10.911-24.376 24.371 0 13.466 10.916 24.376 24.376 24.376s24.376-10.911 24.376-24.376c0-13.46-10.916-24.371-24.376-24.371z" />
<glyph unicode="&#xe905;" glyph-name="blackjack" d="M236.411 257.439l68.854 470.54c1.202 8.197 3.25 16.247 6.112 24.022l-67.451-3.423c-49.18-2.498-87.020-44.387-84.529-93.567l24.11-474.934c2.405-47.386 41.497-84.588 88.943-84.644 1.539 0 3.079 0.036 4.631 0.113l181.606 9.221-121.855 17.833c-64.921 9.58-109.84 69.898-100.421 134.84h0.002zM847.309 712.446c-6.973 9.412-15.744 17.349-25.805 23.35-10.056 6.002-21.207 9.95-32.799 11.615l-352.899 51.637c-48.725 7.135-94.010-26.585-101.138-75.316l-68.857-470.533c-6.655-48.604 26.842-93.583 75.316-101.135l352.905-51.64c48.604-6.661 93.583 26.834 101.135 75.315l68.859 470.535c1.725 11.587 1.137 23.402-1.731 34.761-2.872 11.358-7.967 22.034-14.986 31.411zM681.984 403.113c-42.199-31.421-100.593-58.081-122.138-67.436-5.156-2.248-11.141-1.367-15.447 2.263-17.956 15.13-66.261 57.405-97.689 99.599-75.331 101.141 59.504 201.555 134.829 100.422 101.151 75.315 201.559-59.532 100.403-134.849h0.041z" />
<glyph unicode="&#xe906;" glyph-name="roulette" d="M212.631 235.1c79.74-29.24 186.056-45.343 299.363-45.343s219.619 16.102 299.363 45.343c70.205 25.738 112.026 59.177 116.255 92.524-22.856-23.485-58.772-44.626-106.378-62.080-82.826-30.372-192.65-47.094-309.239-47.094-116.591 0-226.415 16.722-309.238 47.094-47.608 17.454-83.524 38.595-106.381 62.080 4.23-33.347 46.053-66.785 116.256-92.524zM497.658 360.607l-153.533-100.803c47.996-7.572 99.874-11.843 153.533-12.488v113.29zM731.192 269.486c28.836 6.405 55.757 14.116 80.174 23.071 53.914 19.768 91.080 44.078 107.351 69.391-3.118 4.833-6.999 9.636-11.617 14.372h-151.276c9.354-12.401 14.403-27.51 14.387-43.039 0-27.766-15.877-51.881-39.020-63.795zM526.351 247.316c58.322 0.701 114.55 5.678 165.97 14.531-20.716 1.772-38.938 12.375-50.883 28.032l-115.087 71.178v-113.741zM627.666 376.32c-16.445-4.695-34.852-8.253-54.231-10.65l53.345-32.988c-0.005 0.205-0.015 0.404-0.015 0.604-0.020 15.529 5.033 30.638 14.382 43.039l-13.481-0.005zM727.178 634.529c0 4.911 0.497 9.708 1.444 14.346h-116.204v-28.689h116.204c-0.963 4.721-1.449 9.526-1.444 14.344zM798.879 591.43c23.767 0 43.034 19.268 43.034 43.035s-19.267 43.035-43.034 43.035c-23.767 0-43.034-19.267-43.034-43.035s19.267-43.035 43.034-43.035zM105.281 361.846c16.273-25.318 53.44-49.628 107.353-69.391 27.324-10.020 57.772-18.499 90.551-25.313l149.512 98.166c-20.16 2.396-39.312 6.042-56.357 10.906h-279.44c-4.618-4.736-8.5-9.533-11.619-14.367zM927.631 396.227c-3.676 28.739-35.159 57.54-89.585 81.683-57.846 25.663-137.503 43.872-225.633 51.716v-28.587c80.164-6.929 153.088-22.007 211.584-43.839 46.034-17.186 81.157-37.922 103.634-60.972zM339.817 463.312c-48.245-7.842-92.211-18.968-129.787-32.991-20.859-7.788-39.273-16.343-54.891-25.416h183.906c-8.636 8.376-13.533 17.946-13.533 28.687 0 10.87 4.881 20.85 14.305 29.72zM225.097 591.43c23.768 0 43.035 19.268 43.035 43.035s-19.268 43.035-43.035 43.035c-23.768 0-43.035-19.267-43.035-43.035s19.267-43.035 43.035-43.035zM411.587 620.186v28.689h-116.202c0.946-4.638 1.443-9.433 1.443-14.346s-0.499-9.708-1.443-14.345l116.202 0.002zM684.18 463.422c9.421-8.869 14.3-18.847 14.3-29.722 0-10.737-4.89-20.306-13.532-28.687h183.905c-15.616 9.073-34.028 17.628-54.892 25.416-37.576 14.024-81.536 25.153-129.782 32.994zM411.587 501.145v28.587c-88.134-7.842-167.788-26.052-225.638-51.716-54.426-24.143-85.906-52.943-89.583-81.682 22.477 23.050 57.596 43.786 103.636 60.969 58.493 21.835 131.417 36.915 211.585 43.841zM411.587 465.526c-39.421-10-57.379-24.044-57.379-31.826 0-14.602 55.695-43.034 157.792-43.034s157.793 28.431 157.793 43.034c0 7.782-17.961 21.826-57.38 31.826v-3.134c0-29.726-50.432-43.033-100.413-43.033s-100.413 13.307-100.413 43.033v3.134zM821.238 208.246c-82.821-30.372-192.645-47.094-309.238-47.094s-226.415 16.722-309.237 47.094c-47.873 17.551-83.925 38.83-106.763 62.474v-37.847c0-35.169 42.513-70.927 116.638-98.104 79.742-29.24 186.056-45.343 299.362-45.343s219.622 16.102 299.361 45.343c74.127 27.177 116.639 62.935 116.639 98.104v37.847c-22.84-23.644-58.89-44.923-106.762-62.474zM698.47 290.181c23.767 0 43.039 19.267 43.039 43.034s-19.272 43.034-43.039 43.034c-23.767 0-43.034-19.267-43.034-43.034s19.267-43.034 43.034-43.034zM512.005 447.99c42.88 0 67.502 10.577 71.726 15.561v224.915c0 14.316-7.956 27.186-20.762 33.59l-7.931 3.966v31.353c-11.832-5.158-26.619-8.144-43.034-8.144s-31.203 2.986-43.035 8.144v-31.354l-7.928-3.965c-12.805-6.406-20.761-19.274-20.761-33.592v-224.916c4.222-4.981 28.842-15.558 71.724-15.558zM512.005 663.162c15.846 0 28.687-12.844 28.687-28.689s-12.841-28.689-28.687-28.689c-15.845 0-28.689 12.844-28.689 28.689s12.844 28.689 28.689 28.689zM511.997 777.934c23.77 0 43.036 6.423 43.036 14.346s-19.267 14.345-43.036 14.345c-23.768 0-43.035-6.423-43.035-14.345s19.268-14.346 43.035-14.346z" />
<glyph unicode="&#xe907;" glyph-name="sicbo" d="M514.273 547.766c12.662 0 22.927 10.266 22.927 22.929s-10.266 22.929-22.927 22.929c-12.664 0-22.929-10.266-22.929-22.929s10.266-22.929 22.929-22.929zM755.149 547.766c12.662 0 22.927 10.266 22.927 22.929s-10.266 22.929-22.927 22.929c-12.662 0-22.932-10.266-22.932-22.929s10.271-22.929 22.932-22.929zM912.65 607.759l-240.881 240.89c-4.864 4.867-10.644 8.728-17.004 11.362s-13.174 3.99-20.055 3.99c-6.881 0-13.696-1.356-20.055-3.99s-12.14-6.495-17.004-11.362l-240.891-240.89c-4.867-4.867-8.728-10.645-11.362-17.004s-3.99-13.174-3.99-20.057c0-6.883 1.356-13.699 3.99-20.057s6.495-12.137 11.362-17.004l240.891-240.876c4.864-4.869 10.644-8.73 17.004-11.361 6.359-2.637 13.174-3.994 20.055-3.994s13.696 1.357 20.055 3.994c6.359 2.632 12.14 6.492 17.004 11.361l240.881 240.876c4.864 4.867 8.724 10.644 11.361 17.004 2.632 6.359 3.988 13.174 3.988 20.057s-1.357 13.698-3.988 20.057c-2.637 6.359-6.497 12.136-11.361 17.004zM514.33 501.916c-13.603 0-26.903 4.035-38.215 11.593s-20.129 18.302-25.335 30.871c-5.206 12.57-6.568 26.401-3.914 39.744s9.206 25.601 18.826 35.221c9.62 9.62 21.877 16.172 35.221 18.826 13.346 2.654 27.175 1.292 39.745-3.914s23.311-14.023 30.868-25.335c7.562-11.313 11.597-24.612 11.597-38.217-0.020-18.249-7.286-35.743-20.193-48.641-12.913-12.898-30.413-20.144-48.66-20.148h0.061zM755.22 501.916c-13.604 0-26.906 4.035-38.216 11.593s-20.127 18.302-25.334 30.871c-5.207 12.57-6.569 26.401-3.917 39.744 2.657 13.344 9.206 25.601 18.826 35.221s21.878 16.172 35.22 18.826c13.343 2.654 27.177 1.292 39.747-3.914s23.311-14.023 30.868-25.335c7.557-11.313 11.592-24.612 11.592-38.217-0.020-18.249-7.281-35.743-20.193-48.641-12.908-12.898-30.408-20.144-48.66-20.148h0.067zM318.739 212.209c23.518 0 42.583 19.067 42.583 42.583s-19.065 42.583-42.583 42.583c-23.518 0-42.583-19.067-42.583-42.583s19.065-42.583 42.583-42.583zM348.066 477.5h-199.656c-13.9 0-27.231-5.522-37.059-15.35s-15.351-23.161-15.351-37.062v-340.664c0-13.901 5.522-27.228 15.351-37.059s23.159-15.35 37.059-15.35h340.666c13.9 0 27.23 5.519 37.061 15.35 9.825 9.83 15.35 23.158 15.35 37.059v199.654l-193.42 193.422zM318.743 166.313c-17.492 0-34.592 5.187-49.136 14.909-14.544 9.718-25.88 23.526-32.574 39.69-6.694 16.159-8.445 33.94-5.032 51.098s11.835 32.916 24.204 45.286c12.369 12.365 28.128 20.792 45.284 24.202 17.156 3.415 34.939 1.664 51.1-5.033 16.161-6.692 29.974-18.028 39.691-32.573s14.905-31.642 14.905-49.137c-0.028-23.444-9.355-45.926-25.935-62.505-16.58-16.584-39.059-25.907-62.507-25.938z" />
<glyph unicode="&#xe908;" glyph-name="baccarat" d="M591.703 832h-412.18c-28.389 0-51.523-22.989-51.523-51.2v-665.6c0-28.262 23.134-51.2 51.523-51.2h412.18c28.442 0 51.523 22.938 51.523 51.2v665.6c0 28.211-23.081 51.2-51.523 51.2zM443.577 371.2c-10.975 0-21.794 2.048-32.202 5.376v-56.576h25.761c14.22 0 25.761-11.469 25.761-25.6s-11.541-25.6-25.761-25.6h-103.046c-14.22 0-25.761 11.469-25.761 25.6s11.541 25.6 25.761 25.6h25.761v56.576c-10.407-3.328-21.228-5.376-32.202-5.376-54.151 0-96.605 40.141-96.605 91.443 0 67.226 107.786 139.93 140.812 160.614 8.347 5.171 18.909 5.274 27.256 0.102 23.597-14.387 141.067-90.061 141.067-160.717 0-51.302-42.453-91.443-96.603-91.443zM766.264 750.746l-71.511 19.046v-482.099l107.94 400.333c7.368 27.29-8.965 55.398-36.429 62.72zM870.236 602.931l-32.148 18.432-88.673-328.806 139.679 240.435c14.223 24.525 5.77 55.808-18.857 69.939z" />
<glyph unicode="&#xe909;" glyph-name="default" d="M493.913 365.21c0 17.172-6.817 33.633-18.962 45.757-6.006 6.011-13.138 10.783-20.989 14.034-7.852 3.256-16.267 4.931-24.766 4.925h-151.008c-17.171 0-33.632-6.815-45.755-18.959-6.014-6.006-10.784-13.138-14.038-20.992-3.254-7.849-4.927-16.266-4.924-24.765v-151.009c0-17.172 6.817-33.628 18.962-45.752 6.005-6.016 13.138-10.788 20.989-14.039 7.851-3.256 16.267-4.931 24.766-4.925h151.008c17.172 0 33.632 6.815 45.756 18.964 6.014 6.006 10.784 13.138 14.038 20.987 3.254 7.854 4.927 16.266 4.924 24.765v151.009zM817.5 365.21c0 17.172-6.815 33.633-18.959 45.757-6.006 6.011-13.138 10.783-20.992 14.034-7.849 3.256-16.266 4.931-24.765 4.925h-151.009c-17.167 0-33.628-6.815-45.752-18.959-6.016-6.006-10.788-13.138-14.039-20.992-3.256-7.849-4.925-16.266-4.925-24.765v-151.009c0-17.172 6.82-33.628 18.964-45.752 6.006-6.016 13.138-10.788 20.987-14.039 7.854-3.256 16.266-4.931 24.765-4.925h151.009c17.172 0 33.633 6.815 45.757 18.964 6.011 6.006 10.783 13.138 14.039 20.987 3.251 7.854 4.925 16.266 4.92 24.765v151.009zM723.036 477.538l89.999 90.001c12.134 12.136 18.949 28.595 18.949 45.756s-6.815 33.619-18.949 45.755l-89.999 90.001c-12.134 12.133-28.595 18.949-45.757 18.949-17.157 0-33.618-6.816-45.752-18.949l-90.004-90.001c-12.129-12.136-18.949-28.595-18.949-45.755s6.82-33.619 18.949-45.756l90.004-90.001c12.134-12.132 28.595-18.949 45.752-18.949 17.162 0 33.623 6.816 45.757 18.949zM493.913 688.799c0 17.172-6.817 33.632-18.962 45.755-6.006 6.014-13.138 10.784-20.989 14.038s-16.267 4.927-24.766 4.924h-151.008c-17.171 0-33.632-6.817-45.755-18.962-6.014-6.005-10.784-13.138-14.038-20.989s-4.927-16.267-4.924-24.766v-151.008c0-17.172 6.817-33.632 18.962-45.756 6.005-6.013 13.138-10.784 20.989-14.038s16.267-4.927 24.766-4.924h151.008c17.172 0 33.632 6.817 45.756 18.962 6.014 6.006 10.784 13.138 14.038 20.989s4.927 16.267 4.924 24.766v151.008z" />
<glyph unicode="&#xe90a;" glyph-name="arrow-down" d="M489.6 342.4l-154.667 154.667c-2.133 2.133-3.733 4.446-4.8 6.933s-1.6 5.154-1.6 8c0 5.687 1.955 10.667 5.867 14.933s9.067 6.4 15.467 6.4h324.267c6.4 0 11.554-2.133 15.467-6.4s5.867-9.246 5.867-14.933c0-1.421-2.133-6.4-6.4-14.933l-154.667-154.667c-3.554-3.554-7.113-6.046-10.667-7.467s-7.467-2.133-11.733-2.133c-4.267 0-8.179 0.713-11.733 2.133s-7.113 3.913-10.667 7.467z" />
<glyph unicode="&#xe90b;" d="M496.64 857.6c-76.829 0-141.361-4.063-194.556-15.885-53.66-11.926-98.26-32.284-132.567-66.591s-54.665-78.907-66.591-132.567c-11.822-53.195-15.885-117.728-15.885-194.557s4.063-141.361 15.885-194.556c11.926-53.662 32.284-98.259 66.591-132.567s78.907-54.665 132.567-66.593c53.195-11.821 117.728-15.884 194.556-15.884s141.361 4.063 194.556 15.884c53.662 11.928 98.259 32.285 132.567 66.593s54.665 78.905 66.593 132.567c11.821 53.195 15.884 117.727 15.884 194.556s-4.063 141.362-15.884 194.557c-11.928 53.66-32.285 98.259-66.593 132.567s-78.905 54.666-132.567 66.591c-53.195 11.822-117.727 15.885-194.556 15.885zM414.72 693.76c22.622 0 40.96-18.339 40.96-40.96v-20.48h40.96v20.48c0 22.621 18.338 40.96 40.96 40.96s40.96-18.339 40.96-40.96v-21.949c26.866-3.955 49.742-15.751 66.781-33.642 20.709-21.746 30.499-50.081 30.499-77.528 0-25.047-8.151-50.835-25.317-71.68 17.166-20.845 25.317-46.633 25.317-71.68 0-27.447-9.789-55.783-30.499-77.529-17.039-17.891-39.916-29.688-66.781-33.64v-21.95c0-22.622-18.338-40.96-40.96-40.96s-40.96 18.338-40.96 40.96v20.48h-40.96v-20.48c0-22.622-18.338-40.96-40.96-40.96s-40.96 18.338-40.96 40.96v20.48h-40.96c-22.621 0-40.96 18.338-40.96 40.96s18.339 40.96 40.96 40.96h40.96v204.8h-40.96c-22.621 0-40.96 18.339-40.96 40.96s18.339 40.96 40.96 40.96h40.96v20.48c0 22.621 18.339 40.96 40.96 40.96z" />
<glyph unicode="&#xe90c;" glyph-name="logout" d="M455.245 393.067c13.897 0 25.737 4.689 35.529 14.067 9.779 9.387 14.673 20.74 14.673 34.065 0 13.321-4.894 24.678-14.673 34.065-9.792 9.374-21.632 14.063-35.529 14.063s-25.741-4.689-35.531-14.063c-9.781-9.387-14.672-20.745-14.672-34.065 0-13.325 4.89-24.678 14.672-34.065 9.79-9.378 21.634-14.067 35.531-14.067zM228.218-21.333v81.621l353.094 45.005c4.361 0.341 8.090 2.086 11.183 5.222s4.638 6.801 4.638 10.991v610.080c0 17.096-5.615 32.132-16.853 45.111-11.247 12.969-25.31 20.36-42.185 22.174l-292.41 36.839v81.623l304.511-38.513c38.349-5.505 69.948-22.002 94.801-49.491 24.849-27.489 37.274-59.616 37.274-96.383v-609.768c0-24.205-8.444-45.551-25.327-64.047-16.875-18.483-37.939-29.47-63.185-32.96l-365.54-47.505zM228.218 60.288h567.563v758.676c0 4.888-1.634 8.902-4.907 12.040s-7.458 4.707-12.557 4.707h-532.632c-5.099 0-9.284-1.569-12.557-4.707s-4.91-7.151-4.91-12.040v-758.676zM85.234-21.333c-12.080 0-22.192 3.908-30.336 11.725-8.154 7.812-12.231 17.506-12.231 29.086 0 11.584 4.077 21.278 12.231 29.086 8.145 7.817 18.257 11.725 30.336 11.725h57.849v758.676c0 27.135 10.022 50.316 30.067 69.543 20.054 19.217 44.232 28.826 72.535 28.826h532.632c28.301 0 52.48-9.609 72.533-28.826 20.045-19.227 30.067-42.408 30.067-69.543v-758.676h57.847c12.079 0 22.191-3.908 30.336-11.725 8.154-7.808 12.233-17.502 12.233-29.086 0-11.58-4.079-21.274-12.233-29.086-8.145-7.817-18.257-11.725-30.336-11.725h-853.531z" />
<glyph unicode="&#xe90d;" glyph-name="info" d="M511.953 874.063c-235.648 0-426.667-191.019-426.667-426.668s191.019-426.667 426.667-426.667 426.667 191.019 426.667 426.667c0 235.65-191.019 426.668-426.667 426.668zM511.953 788.729c188.501 0 341.333-152.832 341.333-341.335 0-188.501-152.832-341.333-341.333-341.333s-341.333 152.832-341.333 341.333c0 188.503 152.832 341.335 341.333 341.335zM511.953 660.729c-23.552 0-42.667-19.115-42.667-42.667s19.115-42.667 42.667-42.667c23.552 0 42.667 19.115 42.667 42.667s-19.115 42.667-42.667 42.667zM469.286 532.727c-23.552 0-42.667-19.115-42.667-42.667 0-20.565 15.317-35.921 34.645-40.017l-25.301-122.628c-9.899-49.536 25.515-93.355 75.989-93.355h42.667c23.552 0 42.667 19.115 42.667 42.667s-19.115 42.667-42.667 42.667h-33.323l32 162.65c5.291 26.411-14.421 50.684-41.344 50.684-5.376 0-35.755 0-42.667 0z" />
<glyph unicode="&#xe90e;" glyph-name="user" d="M512 490.667c42.193 0 83.439 12.51 118.524 35.955 35.081 23.439 62.426 56.757 78.571 95.739s20.373 81.876 12.139 123.258c-8.23 41.382-28.548 79.395-58.385 109.23-29.833 29.835-67.844 50.153-109.227 58.385-41.387 8.232-84.279 4.007-123.26-12.14s-72.3-43.491-95.742-78.573-35.953-76.329-35.953-118.522c0.068-56.559 22.566-110.781 62.559-150.775s94.216-62.49 150.775-62.559zM512 832c25.314 0 50.065-7.507 71.113-21.572 21.052-14.065 37.457-34.056 47.142-57.445 9.69-23.389 12.224-49.126 7.287-73.955-4.941-24.83-17.131-47.637-35.034-65.538-17.899-17.901-40.708-30.092-65.536-35.031-24.832-4.939-50.569-2.404-73.958 7.284-23.386 9.688-43.377 26.094-57.443 47.144s-21.572 45.797-21.572 71.113c0 33.948 13.486 66.505 37.49 90.51s56.564 37.49 90.51 37.49zM170.667-21.333h682.667c11.315 0 22.17 4.497 30.17 12.497s12.497 18.854 12.497 30.17c0 101.841-40.457 199.514-112.469 271.531-72.017 72.013-169.69 112.469-271.531 112.469-101.843 0-199.515-40.457-271.529-112.469-72.014-72.017-112.471-169.69-112.471-271.531 0-11.315 4.495-22.17 12.497-30.17s18.854-12.497 30.17-12.497zM512 320c71.799-0.090 141.167-26.001 195.447-72.998 54.276-47.002 89.835-111.953 100.19-183.002h-591.275c10.353 71.049 45.915 136 100.192 183.002 54.277 46.997 123.646 72.909 195.445 72.998z" />
<glyph unicode="&#xe90f;" d="M455.68 488.96v61.44h102.4c15.434 0 23.56-5.091 27.939-9.687 4.891-5.136 7.901-12.64 7.901-21.033s-3.011-15.897-7.901-21.033c-4.379-4.596-12.505-9.687-27.939-9.687h-102.4z" />
<glyph unicode="&#xe910;" d="M558.080 345.6c15.434 0 23.56 5.091 27.939 9.687 4.891 5.136 7.901 12.64 7.901 21.033s-3.011 15.897-7.901 21.033c-4.379 4.596-12.505 9.687-27.939 9.687h-102.4v-61.44h102.4z" />
<glyph unicode="&#xe911;" glyph-name="password" d="M121.436 284.941h768.002c9.067 0 16.666-3.068 22.797-9.203 6.135-6.135 9.199-13.739 9.199-22.81s-3.063-16.67-9.199-22.797c-6.131-6.127-13.73-9.19-22.797-9.19h-768.002c-9.067 0-16.666 3.068-22.799 9.203s-9.201 13.739-9.201 22.81 3.066 16.67 9.199 22.797c6.133 6.127 13.734 9.19 22.801 9.19zM164.102 545.537l-26.010-46.115c-3.392-6.229-8.478-10.193-15.261-11.891s-13.28-0.849-19.49 2.551c-6.21 3.401-10.162 8.503-11.856 15.305s-0.817 13.291 2.629 19.473l26.010 46.112h-52.021c-7.348 0-13.424 2.401-18.229 7.202s-7.206 10.872-7.206 18.214c0 7.343 2.403 13.42 7.208 18.235 4.804 4.813 10.88 7.22 18.228 7.22h52.021l-26.010 43.98c-3.446 6.181-4.322 12.672-2.629 19.473s5.646 11.902 11.856 15.302c6.21 3.401 12.707 4.251 19.49 2.552s11.869-5.663 15.261-11.892l26.010-43.981 26.010 43.981c3.392 6.229 8.478 10.193 15.261 11.892s13.28 0.848 19.49-2.552c6.21-3.401 10.162-8.501 11.856-15.302s0.818-13.292-2.628-19.473l-26.011-43.98h52.021c7.348 0 13.424-2.4 18.228-7.202 4.805-4.8 7.207-10.872 7.207-18.214s-2.403-13.42-7.207-18.234c-4.804-4.814-10.88-7.22-18.228-7.22h-52.021l26.011-46.112c3.446-6.182 4.322-12.672 2.628-19.473s-5.646-11.904-11.856-15.305c-6.21-3.401-12.707-4.25-19.49-2.551s-11.869 5.662-15.261 11.891l-26.010 46.115zM505.438 545.537l-26.014-46.115c-3.392-6.229-8.478-10.193-15.258-11.891-6.784-1.698-13.282-0.849-19.49 2.551-6.212 3.401-10.163 8.503-11.857 15.305s-0.819 13.291 2.628 19.473l26.010 46.112h-52.021c-7.348 0-13.424 2.401-18.228 7.202s-7.208 10.872-7.208 18.214c0 7.343 2.403 13.42 7.208 18.235 4.804 4.813 10.88 7.22 18.228 7.22h52.021l-26.010 43.98c-3.447 6.181-4.322 12.672-2.628 19.473s5.645 11.902 11.857 15.302c6.208 3.401 12.706 4.251 19.49 2.552 6.78-1.699 11.866-5.663 15.258-11.892l26.014-43.981 26.010 43.981c3.392 6.229 8.478 10.193 15.262 11.892 6.78 1.699 13.278 0.848 19.49-2.552 6.208-3.401 10.159-8.501 11.853-15.302s0.819-13.292-2.628-19.473l-26.010-43.98h52.023c7.347 0 13.423-2.4 18.227-7.202 4.804-4.8 7.206-10.872 7.206-18.214s-2.402-13.42-7.206-18.234c-4.804-4.814-10.88-7.22-18.227-7.22h-52.023l26.010-46.112c3.447-6.182 4.322-12.672 2.628-19.473s-5.645-11.904-11.853-15.305c-6.212-3.401-12.71-4.25-19.49-2.551-6.784 1.698-11.87 5.662-15.262 11.891l-26.010 46.115zM846.771 545.537l-26.014-46.115c-3.392-6.229-8.478-10.193-15.258-11.891-6.784-1.698-13.282-0.849-19.49 2.551-6.212 3.401-10.163 8.503-11.857 15.305s-0.819 13.291 2.628 19.473l26.010 46.112h-52.019c-7.351 0-13.427 2.401-18.231 7.202s-7.206 10.872-7.206 18.214c0 7.343 2.402 13.42 7.206 18.235 4.804 4.813 10.88 7.22 18.231 7.22h52.019l-26.010 43.98c-3.447 6.181-4.322 12.672-2.628 19.473s5.645 11.902 11.857 15.302c6.208 3.401 12.706 4.251 19.49 2.552 6.78-1.699 11.866-5.663 15.258-11.892l26.014-43.981 26.010 43.981c3.392 6.229 8.478 10.193 15.262 11.892 6.78 1.699 13.278 0.848 19.49-2.552 6.208-3.401 10.159-8.501 11.853-15.302s0.819-13.292-2.628-19.473l-26.010-43.98h52.023c7.347 0 13.423-2.4 18.227-7.202 4.804-4.8 7.206-10.872 7.206-18.214s-2.402-13.42-7.206-18.234c-4.804-4.814-10.88-7.22-18.227-7.22h-52.023l26.010-46.112c3.447-6.182 4.322-12.672 2.628-19.473s-5.645-11.904-11.853-15.305c-6.212-3.401-12.71-4.25-19.49-2.551-6.784 1.698-11.87 5.662-15.262 11.891l-26.010 46.115z" />
<glyph unicode="&#xe912;" glyph-name="account-box" d="M512 917.333c-92.825 0-183.566-27.526-260.748-79.097s-137.337-124.871-172.86-210.63c-35.523-85.76-44.817-180.127-26.708-271.169s62.809-174.669 128.446-240.307c65.638-65.638 149.265-110.336 240.306-128.444 91.042-18.112 185.408-8.815 271.168 26.705 85.76 35.524 159.061 95.68 210.633 172.86 51.571 77.184 79.095 167.923 79.095 260.749-0.145 124.43-49.643 243.721-137.626 331.706-87.987 87.985-207.279 137.48-331.708 137.627zM512 64c-79.428 1.847-156.619 26.654-222.251 71.424 28.010 31.202 62.276 56.158 100.569 73.237 38.29 17.084 79.753 25.916 121.682 25.916s83.392-8.832 121.681-25.916c38.293-17.079 72.559-42.035 100.57-73.237-65.084-45.875-142.622-70.797-222.251-71.424zM797.611 192.256c-35.938 40.192-79.953 72.341-129.169 94.357-49.22 22.012-102.528 33.391-156.442 33.391s-107.223-11.379-156.439-33.391c-49.216-22.016-93.232-54.165-129.171-94.357-49.601 55.194-82.148 123.575-93.705 196.873-11.556 73.301-1.627 148.381 28.588 216.156s79.419 125.346 141.662 165.746c62.243 40.4 134.859 61.901 209.065 61.901s146.82-21.501 209.067-61.901c62.242-40.401 111.445-97.97 141.662-165.746 30.212-67.776 40.141-142.855 28.587-216.156-11.558-73.297-44.105-141.679-93.705-196.873zM512 704c-33.754 0-66.752-10.010-94.817-28.762s-49.94-45.408-62.858-76.593c-12.917-31.185-16.297-65.499-9.712-98.608 6.585-33.105 22.84-63.514 46.708-87.381s54.277-40.124 87.382-46.707c33.109-6.588 67.422-3.209 98.607 9.711 31.185 12.915 57.843 34.79 76.595 62.857s28.762 61.065 28.762 94.818c0 45.264-17.98 88.673-49.988 120.68-32.004 32.006-75.413 49.987-120.678 49.987zM512 448c-16.879 0-33.374 5.005-47.407 14.383-14.033 9.374-24.973 22.703-31.433 38.293-6.455 15.595-8.147 32.752-4.855 49.305 3.294 16.553 11.422 31.758 23.356 43.692s27.14 20.061 43.691 23.354c16.555 3.293 33.711 1.603 49.306-4.856 15.59-6.459 28.919-17.396 38.293-31.429 9.378-14.033 14.383-30.531 14.383-47.409 0-22.63-8.99-44.335-24.994-60.339s-37.709-24.994-60.339-24.994z" />
<glyph unicode="&#xe913;" glyph-name="check" d="M427.857 283.034l368.576 368.572c6.345 6.345 13.879 9.587 22.605 9.724s16.397-3.104 23.014-9.724c6.618-6.618 9.929-14.221 9.929-22.81 0-8.587-3.311-16.19-9.929-22.81l-387.2-387.2c-7.714-7.71-16.713-11.567-26.995-11.567s-19.281 3.857-26.993 11.567l-178.133 178.133c-6.345 6.345-9.477 13.879-9.395 22.605s3.433 16.397 10.051 23.014c6.619 6.618 14.223 9.929 22.81 9.929 8.588 0 16.192-3.311 22.81-9.929l158.852-159.505z" />
<glyph unicode="&#xe914;" glyph-name="visibility" d="M512 277.333c53.333 0 98.667 18.667 136 56s56 82.667 56 136c0 53.333-18.667 98.667-56 136s-82.667 56-136 56c-53.333 0-98.667-18.667-136-56s-56-82.667-56-136c0-53.333 18.667-98.667 56-136s82.667-56 136-56zM512 354.133c-32 0-59.2 11.2-81.6 33.6s-33.6 49.6-33.6 81.6c0 32 11.2 59.2 33.6 81.6s49.6 33.6 81.6 33.6c32 0 59.2-11.2 81.6-33.6s33.6-49.6 33.6-81.6c0-32-11.2-59.2-33.6-81.6s-49.6-33.6-81.6-33.6zM512 149.333c-95.289 0-182.223 25.6-260.8 76.8s-140.622 118.754-186.133 202.667c-3.555 6.4-6.222 12.979-8 19.733s-2.667 13.687-2.667 20.8c0 7.113 0.889 14.046 2.667 20.8s4.445 13.333 8 19.733c45.511 83.911 107.556 151.467 186.133 202.667s165.511 76.8 260.8 76.8c95.287 0 182.221-25.6 260.8-76.8s140.621-118.755 186.133-202.667c3.554-6.4 6.221-12.979 8-19.733s2.667-13.687 2.667-20.8c0-7.113-0.887-14.046-2.667-20.8s-4.446-13.333-8-19.733c-45.513-83.913-107.554-151.467-186.133-202.667s-165.513-76.8-260.8-76.8zM512 234.667c80.354 0 154.133 21.154 221.333 63.467s118.579 99.379 154.133 171.2c-35.554 71.822-86.933 128.889-154.133 171.2s-140.979 63.467-221.333 63.467c-80.354 0-154.134-21.155-221.334-63.467s-118.577-99.378-154.133-171.2c35.556-71.821 86.933-128.887 154.133-171.2s140.98-63.467 221.334-63.467z" />
<glyph unicode="&#xe915;" glyph-name="visibility-off" d="M647.467 604.801c20.621-20.622 35.733-44.089 45.333-70.4 9.6-26.309 12.979-53.334 10.133-81.068 0-10.667-3.913-19.733-11.733-27.2s-17.067-11.2-27.733-11.2c-10.667 0-19.733 3.733-27.2 11.2s-11.2 16.533-11.2 27.2c3.554 18.492 2.487 36.267-3.2 53.333s-14.579 31.645-26.667 43.734c-12.087 12.089-26.667 21.333-43.733 27.733s-35.2 7.823-54.4 4.267c-10.667 0-19.733 3.911-27.2 11.733s-11.2 17.067-11.2 27.733c0 10.667 3.733 19.733 11.2 27.2s16.533 11.2 27.2 11.2c27.021 2.845 53.687-0.533 80-10.133s49.779-24.711 70.4-45.333zM512 704.001c-13.513 0-26.667-0.533-39.467-1.6s-25.6-3.022-38.4-5.867c-12.089-2.133-22.933-0.355-32.533 5.333s-16.178 14.223-19.733 25.6c-3.555 11.378-2.311 22.4 3.733 33.067s14.755 17.067 26.133 19.2c16.354 3.556 32.887 6.045 49.6 7.467s33.6 2.133 50.667 2.133c97.421 0 186.487-25.6 267.2-76.8s142.4-120.177 185.067-206.934c2.846-5.687 4.979-11.554 6.4-17.6 1.421-6.042 2.133-12.267 2.133-18.667s-0.533-12.621-1.6-18.667c-1.067-6.042-3.021-11.908-5.867-17.6-12.8-28.442-28.621-55.108-47.467-80-18.846-24.887-39.646-47.642-62.4-68.267-8.533-7.821-18.487-11.021-29.867-9.6-11.379 1.425-20.621 7.113-27.733 17.067-7.113 9.958-10.133 20.8-9.067 32.533s5.867 21.513 14.4 29.333c17.067 16.358 32.713 34.133 46.933 53.333s26.667 39.825 37.333 61.867c-35.554 71.823-86.933 128.89-154.133 171.201s-140.979 63.467-221.333 63.467zM512 149.333c-95.289 0-182.4 25.779-261.333 77.333-78.933 51.558-141.155 119.292-186.667 203.2-3.555 5.692-6.222 11.913-8 18.667-1.778 6.758-2.667 13.692-2.667 20.8 0 7.113 0.711 13.867 2.133 20.267s3.911 12.8 7.467 19.2c14.222 28.445 30.755 55.645 49.6 81.601s40.355 49.6 64.533 70.933l-88.533 89.6c-7.822 8.533-11.555 18.667-11.2 30.4s4.445 21.511 12.267 29.333c7.822 7.823 17.778 11.733 29.867 11.733s22.045-3.911 29.867-11.733l725.333-725.334c7.821-7.821 11.913-17.6 12.267-29.333s-3.733-21.867-12.267-30.4c-7.821-7.821-17.779-11.733-29.867-11.733s-22.046 3.913-29.867 11.733l-149.333 147.2c-24.887-7.821-50.133-13.687-75.733-17.6-25.6-3.908-51.554-5.867-77.867-5.867zM236.8 601.601c-20.622-18.489-39.467-38.755-56.533-60.8-17.067-22.042-31.645-45.868-43.733-71.468 35.555-71.821 86.933-128.887 154.133-171.2 67.2-42.308 140.979-63.467 221.333-63.467 14.221 0 28.087 0.892 41.6 2.667 13.513 1.779 27.379 3.733 41.6 5.867l-38.4 40.533c-7.821-2.133-15.287-3.733-22.4-4.8s-14.579-1.6-22.4-1.6c-53.333 0-98.667 18.667-136 56s-56 82.667-56 136c0 7.825 0.533 15.292 1.6 22.4 1.067 7.113 2.667 14.579 4.8 22.4l-89.6 87.468z" />
<glyph unicode="&#xe916;" glyph-name="expand-more" d="M506.368 234.667c-8.542 0-16.491 1.361-23.851 4.087-7.356 2.726-14.353 7.407-20.983 14.037l-318.468 318.468c-9.812 9.811-14.831 22.143-15.058 36.997s4.791 27.414 15.058 37.679c10.266 10.265 22.711 15.398 37.337 15.398s27.072-5.133 37.337-15.398l288.628-288.628 288.623 288.628c9.813 9.811 22.144 14.83 36.996 15.058 14.857 0.227 27.413-4.793 37.679-15.058s15.398-22.712 15.398-37.339c0-14.626-5.133-27.072-15.398-37.337l-318.468-318.468c-6.63-6.63-13.628-11.311-20.983-14.037-7.36-2.726-15.309-4.087-23.846-4.087z" />
<glyph unicode="&#xe917;" glyph-name="expand-less" d="M506.701 538.693l-288.626-288.628c-9.811-9.813-22.143-14.831-36.997-15.057-14.853-0.226-27.412 4.791-37.677 15.057-10.267 10.266-15.4 22.711-15.4 37.338s5.133 27.072 15.4 37.338l318.471 318.47c6.63 6.632 13.623 11.311 20.983 14.036s15.309 4.087 23.846 4.087c8.542 0 16.491-1.362 23.846-4.087 7.36-2.726 14.357-7.404 20.988-14.036l318.468-318.47c9.813-9.813 14.831-22.144 15.057-36.996 0.23-14.852-4.791-27.413-15.057-37.679s-22.711-15.398-37.338-15.398c-14.626 0-27.072 5.133-37.338 15.398l-288.627 288.628z" />
<glyph unicode="&#xe918;" d="M851.374 535.63c33.157-2.109 62.48-28.262 64.946-64.786 0.164-2.396 0.16-4.977 0.16-7.369v-153.829c0-2.392 0.004-4.973-0.16-7.369-2.466-36.528-31.789-62.677-64.946-64.786-2.236-0.143-4.674-0.143-7.197-0.143h-99.668c-81.629 0-151.478 64.762-151.478 149.213s69.849 149.209 151.478 149.209h99.668c2.523 0 4.96 0.004 7.197-0.139zM735.732 346.771c21.012 0 38.052 17.814 38.052 39.789s-17.039 39.789-38.052 39.789c-21.017 0-38.056-17.814-38.056-39.789s17.039-39.789 38.056-39.789z" />
<glyph unicode="&#xe919;" d="M844.149 177.664c5.886 0.152 10.342-5.341 8.745-11.055-7.926-28.348-20.505-52.507-40.69-72.851-29.544-29.778-67.006-42.992-113.295-49.263-44.974-6.095-102.441-6.095-174.998-6.095h-83.411c-72.555 0-130.023 0-174.999 6.095-46.287 6.271-83.751 19.485-113.296 49.263s-42.657 67.535-48.88 114.184c-6.047 45.33-6.046 103.248-6.046 176.374v4.489c-0.001 73.126-0.001 131.043 6.046 176.372 6.223 46.651 19.335 84.409 48.88 114.186s67.009 42.992 113.296 49.264c44.975 6.094 102.443 6.094 174.999 6.093h83.411c72.557 0.001 130.023 0.001 174.998-6.093 46.289-6.272 83.751-19.487 113.295-49.264 20.185-20.344 32.764-44.505 40.69-72.853 1.597-5.713-2.859-11.208-8.745-11.054h-99.639c-111.993 0-210.698-89.165-210.698-208.896s98.705-208.896 210.698-208.896h99.639zM245.328 575.561c-16.353 0-29.61-13.361-29.61-29.843s13.257-29.843 29.61-29.843h157.918c16.352 0 29.611 13.361 29.611 29.843s-13.259 29.843-29.611 29.843h-157.918z" />
<glyph unicode="&#xe91a;" d="M333.892 774.681l80.234 59.111c43.086 31.744 101.462 31.744 144.548 0l80.654-59.421c-33.722 1.312-71.381 1.31-112.669 1.309h-88.908c-37.727 0.001-72.426 0.002-103.859-0.999z" />
<glyph unicode="&#xe91b;" d="M599.040 775.68h-163.84c-154.47 0-231.704 0-279.692-47.988-34.551-34.551-44.225-84.265-46.934-167.052h817.093c-2.707 82.788-12.382 132.501-46.936 167.052-47.985 47.988-125.223 47.988-279.691 47.988z" />
<glyph unicode="&#xe91c;" d="M599.040 120.32c154.468 0 231.707 0 279.691 47.989 47.989 47.985 47.989 125.223 47.989 279.691 0 18.1 0 35.144-0.078 51.2h-819.045c-0.077-16.056-0.077-33.1-0.077-51.2 0-154.468 0-231.707 47.988-279.691 47.988-47.989 125.223-47.989 279.692-47.989h163.84zM682.791 437.76c17.732 0.004 33.985 0.004 47.206-1.774 14.561-1.958 29.95-6.562 42.607-19.223 12.661-12.657 17.265-28.045 19.223-42.607 1.778-13.222 1.778-29.475 1.774-47.206v-3.662c0.004-17.732 0.004-33.985-1.774-47.206-1.958-14.561-6.562-29.95-19.223-42.607-12.657-12.661-28.045-17.265-42.607-19.223-13.222-1.778-29.475-1.778-47.206-1.774h-3.662c-17.732-0.004-33.985-0.004-47.206 1.774-14.561 1.958-29.95 6.562-42.607 19.223-12.661 12.657-17.265 28.045-19.223 42.607-1.778 13.222-1.778 29.475-1.774 47.206v3.662c-0.004 17.732-0.004 33.985 1.774 47.206 1.958 14.561 6.562 29.95 19.223 42.607 12.657 12.661 28.045 17.265 42.607 19.223 13.222 1.778 29.475 1.778 47.206 1.774h3.662zM240.64 386.56c0 16.966 13.754 30.72 30.72 30.72h81.92c16.966 0 30.72-13.754 30.72-30.72s-13.754-30.72-30.72-30.72h-81.92c-16.966 0-30.72 13.754-30.72 30.72zM240.64 263.68c0 16.966 13.754 30.72 30.72 30.72h163.84c16.966 0 30.72-13.754 30.72-30.72s-13.754-30.72-30.72-30.72h-163.84c-16.966 0-30.72 13.754-30.72 30.72z" />
<glyph unicode="&#xe91d;" d="M632.762 373.322l0.098 0.053c0.078 0.041 0.213 0.111 0.422 0.193 0.889 0.369 2.871 0.995 6.828 1.528 8.63 1.159 20.673 1.225 40.849 1.225s32.219-0.066 40.849-1.225c3.957-0.532 5.939-1.159 6.828-1.528 0.209-0.082 0.344-0.152 0.422-0.193l0.102-0.053 0.053-0.102c0.041-0.078 0.111-0.213 0.193-0.422 0.369-0.889 0.995-2.871 1.528-6.828 1.159-8.63 1.225-20.673 1.225-40.849s-0.066-32.219-1.225-40.849c-0.532-3.957-1.159-5.939-1.528-6.828-0.082-0.209-0.152-0.344-0.193-0.422l-0.053-0.102-0.102-0.053c-0.078-0.041-0.213-0.111-0.422-0.193-0.889-0.369-2.871-0.995-6.828-1.528-8.63-1.159-20.673-1.225-40.849-1.225s-32.219 0.066-40.849 1.225c-3.957 0.532-5.939 1.159-6.828 1.528-0.209 0.082-0.344 0.152-0.422 0.193l-0.102 0.053-0.053 0.102c-0.041 0.078-0.111 0.213-0.193 0.422-0.369 0.889-0.995 2.871-1.528 6.828-1.159 8.63-1.225 20.673-1.225 40.849s0.066 32.219 1.225 40.849c0.532 3.957 1.159 5.939 1.528 6.828 0.082 0.209 0.152 0.344 0.193 0.422l0.057 0.102z" />
<glyph unicode="&#xe91e;" d="M712.7 857.6c-23.785 0-43.639 0.001-59.761-1.532-16.855-1.603-32.563-5.080-46.969-13.909-14.098-8.64-25.952-20.494-34.595-34.593-8.827-14.407-12.304-30.115-13.906-46.969-1.536-16.123-1.532-35.976-1.532-59.761v-45.254c-0.004-34.234-0.004-62.781 3.043-85.444 3.215-23.92 10.289-45.518 27.644-62.873s38.953-24.429 62.874-27.644c22.663-3.047 51.208-3.047 85.443-3.043h45.257c23.785 0 43.639-0.004 59.761 1.532 16.855 1.602 32.559 5.079 46.969 13.906 14.098 8.643 25.952 20.496 34.591 34.595 8.831 14.406 12.308 30.114 13.91 46.969 1.532 16.123 1.532 35.972 1.532 59.758v2.799c0 36.2 0 65.394-2.232 88.895-2.306 24.236-7.188 45.353-18.821 64.341-11.784 19.226-27.947 35.39-47.174 47.172-18.989 11.636-40.104 16.517-64.34 18.822-23.503 2.234-52.695 2.234-88.895 2.234h-2.798zM746.447 619.461c-19.636 0-29.454 0-36.389 4.919-2.445 1.735-4.583 3.872-6.32 6.318-4.919 6.933-4.919 16.752-4.919 36.39s0 29.458 4.919 36.391c1.737 2.447 3.875 4.583 6.32 6.318 6.935 4.919 16.753 4.919 36.389 4.919 19.64 0 29.458 0 36.393-4.919 2.445-1.736 4.579-3.872 6.316-6.318 4.919-6.933 4.919-16.752 4.919-36.39s0-29.458-4.919-36.391c-1.737-2.447-3.871-4.583-6.316-6.318-6.935-4.919-16.753-4.919-36.393-4.919z" />
<glyph unicode="&#xe91f;" d="M448.75 842.159c14.098-8.64 25.952-20.494 34.595-34.593 8.827-14.407 12.304-30.115 13.906-46.969 1.536-16.122 1.532-35.977 1.532-59.762v-45.255c0.004-34.234 0.004-62.78-3.043-85.443-3.215-23.92-10.289-45.518-27.644-62.873s-38.953-24.429-62.873-27.644c-22.662-3.047-51.21-3.047-85.444-3.043h-45.26c-23.785 0-43.634-0.004-59.756 1.532-16.855 1.602-32.562 5.079-46.969 13.906-14.099 8.643-25.953 20.496-34.593 34.595-8.829 14.406-12.306 30.114-13.909 46.969-1.533 16.123-1.532 35.976-1.532 59.762v2.796c0 36.199 0 65.393 2.234 88.894 2.304 24.236 7.185 45.353 18.822 64.341 11.781 19.226 27.946 35.39 47.172 47.172 18.989 11.636 40.105 16.517 64.341 18.822 23.501 2.234 52.697 2.234 88.896 2.234h2.796c23.787 0 43.638 0.001 59.761-1.532 16.855-1.603 32.563-5.080 46.969-13.909zM271.881 624.38c6.933-4.919 16.752-4.919 36.39-4.919s29.458 0 36.391 4.919c2.447 1.735 4.583 3.872 6.318 6.318 4.919 6.933 4.919 16.752 4.919 36.391s0 29.457-4.919 36.39c-1.735 2.447-3.872 4.583-6.318 6.318-6.933 4.919-16.752 4.919-36.391 4.919s-29.457 0-36.39-4.919c-2.447-1.736-4.583-3.872-6.318-6.318-4.919-6.933-4.919-16.752-4.919-36.39s0-29.458 4.919-36.391c1.736-2.447 3.872-4.583 6.318-6.318z" />
<glyph unicode="&#xe920;" d="M405.222 416.375c-22.662 3.047-51.209 3.047-85.444 3.043h-45.258c-23.785 0-43.636 0.004-59.758-1.532-16.855-1.602-32.562-5.079-46.969-13.906-14.099-8.643-25.953-20.496-34.593-34.595-8.829-14.406-12.306-30.114-13.909-46.969-1.533-16.122-1.532-35.975-1.532-59.761v-2.798c0-36.2 0-65.393 2.234-88.895 2.304-24.236 7.185-45.351 18.822-64.34 11.781-19.227 27.946-35.389 47.172-47.174 18.989-11.633 40.105-16.515 64.341-18.821 23.502-2.232 52.695-2.232 88.895-2.232h2.795c23.785 0 43.639 0 59.762 1.532 16.855 1.602 32.563 5.079 46.969 13.91 14.098 8.638 25.952 20.492 34.595 34.591 8.827 14.41 12.304 30.114 13.906 46.969 1.536 16.122 1.532 35.975 1.532 59.761v45.257c0.004 34.234 0.004 62.779-3.043 85.443-3.215 23.921-10.289 45.519-27.644 62.874s-38.953 24.429-62.873 27.644zM308.272 181.281c-19.638 0-29.457 0-36.39 4.919-2.447 1.737-4.583 3.871-6.318 6.316-4.919 6.935-4.919 16.753-4.919 36.393 0 19.636 0 29.454 4.919 36.389 1.736 2.445 3.872 4.583 6.318 6.32 6.933 4.919 16.752 4.919 36.39 4.919s29.458 0 36.391-4.919c2.447-1.737 4.583-3.875 6.318-6.32 4.919-6.935 4.919-16.753 4.919-36.389 0-19.64 0-29.458-4.919-36.393-1.735-2.445-3.872-4.579-6.318-6.316-6.933-4.919-16.752-4.919-36.391-4.919z" />
<glyph unicode="&#xe921;" d="M555.938 258.945v-1.462h57.151c0 27.353 0.037 45.715 1.458 59.716 1.376 13.521 3.809 19.767 6.57 23.9 3.473 5.202 7.938 9.667 13.14 13.14 4.133 2.761 10.379 5.194 23.9 6.57 14 1.421 32.362 1.458 59.716 1.458h76.202v57.151h-77.664c-25.514 0-46.801 0.004-64.037-1.749-18.039-1.839-34.779-5.829-49.869-15.909-11.44-7.643-21.266-17.469-28.91-28.91-10.080-15.090-14.070-31.83-15.909-49.869-1.753-17.236-1.749-38.523-1.749-64.037z" />
<glyph unicode="&#xe922;" d="M512-64c282.769 0 512 229.231 512 512s-229.231 512-512 512c-282.77 0-512-229.23-512-512s229.23-512 512-512z" />
<glyph unicode="&#xe923;" glyph-name="close" d="M531.584 368.465l-288.605-288.602c-7.876-7.876-17.777-11.904-29.702-12.087s-22.007 3.849-30.248 12.087c-8.242 8.243-12.364 18.236-12.364 29.978s4.121 21.73 12.364 29.973l288.603 288.602-288.603 288.605c-7.878 7.876-11.907 17.777-12.089 29.702s3.847 22.007 12.089 30.248c8.241 8.242 18.233 12.364 29.975 12.364s21.734-4.121 29.975-12.364l288.605-288.603 288.602 288.603c7.876 7.878 17.775 11.907 29.7 12.089s22.007-3.847 30.251-12.089c8.239-8.241 12.361-18.233 12.361-29.975s-4.122-21.734-12.361-29.975l-288.602-288.605 288.602-288.602c7.876-7.876 11.904-17.775 12.087-29.7s-3.849-22.007-12.087-30.251c-8.243-8.239-18.236-12.361-29.978-12.361s-21.73 4.122-29.973 12.361l-288.602 288.602z" />
<glyph unicode="&#xe924;" d="M936.96 180.318v0.963h-57.156c0-18.145-0.012-30.323-0.655-39.752-0.627-9.171-1.749-13.64-2.97-16.577-4.833-11.674-14.103-20.943-25.776-25.776-2.937-1.221-7.406-2.343-16.577-2.97-9.429-0.643-21.606-0.655-39.752-0.655h-76.202v-57.156h77.165c16.937 0 31.072 0 42.68 0.791 12.083 0.823 23.495 2.601 34.558 7.184 25.674 10.637 46.072 31.035 56.709 56.709 4.583 11.063 6.361 22.475 7.184 34.558 0.791 11.608 0.791 25.743 0.791 42.68z" />
<glyph unicode="&#xe925;" glyph-name="arrow-back" d="M334.933 405.333l121.6-121.6c8.533-8.533 12.621-18.487 12.267-29.867s-4.446-21.333-12.267-29.867c-8.533-8.533-18.667-12.979-30.4-13.333s-21.867 3.733-30.4 12.267l-195.2 195.2c-8.533 8.533-12.8 18.487-12.8 29.867s4.267 21.333 12.8 29.867l195.2 195.2c8.533 8.533 18.667 12.622 30.4 12.267s21.867-4.8 30.4-13.333c7.821-8.533 11.913-18.489 12.267-29.867s-3.733-21.333-12.267-29.867l-121.6-121.6h475.733c12.087 0 22.221-4.087 30.4-12.267s12.267-18.313 12.267-30.4c0-12.087-4.087-22.221-12.267-30.4s-18.313-12.267-30.4-12.267h-475.733z" />
<glyph unicode="&#xe926;" glyph-name="arrow-forward" d="M689.067 405.333h-475.733c-12.089 0-22.222 4.087-30.4 12.267s-12.267 18.313-12.267 30.4c0 12.087 4.089 22.221 12.267 30.4s18.311 12.267 30.4 12.267h475.733l-121.6 121.6c-8.533 8.533-12.621 18.489-12.267 29.867s4.446 21.333 12.267 29.867c8.533 8.533 18.667 12.977 30.4 13.333s21.867-3.733 30.4-12.267l195.2-195.2c4.267-4.267 7.287-8.887 9.067-13.867s2.667-10.313 2.667-16c0-5.687-0.887-11.021-2.667-16s-4.8-9.6-9.067-13.867l-195.2-195.2c-8.533-8.533-18.667-12.621-30.4-12.267s-21.867 4.8-30.4 13.333c-7.821 8.533-11.913 18.487-12.267 29.867s3.733 21.333 12.267 29.867l121.6 121.6z" />
<glyph unicode="&#xe927;" d="M613.089 66.974c0-15.782-12.792-28.578-28.578-28.578-15.782 0-28.574 12.796-28.574 28.578v114.307h57.151v-114.307z" />
<glyph unicode="&#xe928;" d="M908.382 419.418c-15.782 0-28.578-12.792-28.578-28.574v-133.362h57.156v133.362c0 15.782-12.796 28.574-28.578 28.574z" />
<glyph unicode="&#xe929;" glyph-name="history" d="M768 917.333h-512c-33.948 0-66.505-13.486-90.51-37.49s-37.49-56.562-37.49-90.51v-768c0-8.956 2.818-17.681 8.054-24.947s12.625-12.698 21.12-15.531c8.495-2.833 17.667-2.918 26.214-0.247s16.038 7.962 21.411 15.125l86.571 115.2 54.443-108.885c3.234-6.481 8.064-12.032 14.036-16.128 5.972-4.1 12.888-6.609 20.098-7.296 7.268-0.717 14.598 0.482 21.259 3.477s12.424 7.68 16.714 13.589l94.080 125.184 93.867-125.141c4.297-5.905 10.061-10.586 16.721-13.577 6.66-2.995 13.986-4.198 21.252-3.49 7.211 0.687 14.127 3.196 20.096 7.296 5.973 4.096 10.803 9.647 14.037 16.128l54.656 108.843 86.571-115.2c3.972-5.299 9.126-9.6 15.053-12.561 5.922-2.965 12.459-4.506 19.081-4.506 11.315 0 22.17 4.497 30.17 12.497s12.497 18.854 12.497 30.17v768c0 33.948-13.487 66.505-37.491 90.51s-56.563 37.49-90.509 37.49zM810.667 149.333l-51.2 68.267c-4.297 5.905-10.061 10.586-16.721 13.577-6.66 2.995-13.986 4.198-21.252 3.49-7.211-0.687-14.127-3.196-20.096-7.296-5.973-4.096-10.803-9.647-14.037-16.128l-54.443-108.885-86.784 115.243c-3.972 5.299-9.126 9.6-15.053 12.561-5.922 2.965-12.459 4.506-19.081 4.506s-13.158-1.54-19.081-4.506c-5.926-2.961-11.081-7.262-15.053-12.561l-86.571-115.413-54.229 108.885c-3.249 6.571-8.136 12.194-14.189 16.324-6.053 4.134-13.069 6.639-20.371 7.27-7.266 0.691-14.586-0.521-21.243-3.511-6.657-2.995-12.422-7.663-16.73-13.555l-51.2-68.267v640c0 11.316 4.495 22.168 12.497 30.17s18.854 12.497 30.17 12.497h512c11.315 0 22.17-4.495 30.17-12.497s12.497-18.854 12.497-30.17v-640zM725.333 576c0-11.316-4.497-22.168-12.497-30.17s-18.854-12.497-30.17-12.497h-341.333c-11.316 0-22.168 4.495-30.17 12.497s-12.497 18.854-12.497 30.17c0 11.316 4.495 22.168 12.497 30.17s18.854 12.497 30.17 12.497h341.333c11.315 0 22.17-4.495 30.17-12.497s12.497-18.854 12.497-30.17zM554.667 405.333c0-11.315-4.497-22.17-12.497-30.17s-18.854-12.497-30.17-12.497h-170.667c-11.316 0-22.168 4.497-30.17 12.497s-12.497 18.854-12.497 30.17c0 11.315 4.495 22.17 12.497 30.17s18.854 12.497 30.17 12.497h170.667c11.315 0 22.17-4.497 30.17-12.497s12.497-18.854 12.497-30.17z" />
<glyph unicode="&#xe92a;" d="M694.317 258.875c-3.117-7.528-3.117-17.072-3.117-36.155s0-28.627 3.117-36.155c4.157-10.035 12.132-18.010 22.168-22.168 7.528-3.117 17.072-3.117 36.155-3.117s28.627 0 36.155 3.117c10.035 4.157 18.010 12.132 22.168 22.168 3.117 7.528 3.117 17.072 3.117 36.155s0 28.627-3.117 36.155c-4.157 10.035-12.132 18.010-22.168 22.168-7.528 3.117-17.072 3.117-36.155 3.117s-28.627 0-36.155-3.117c-10.035-4.157-18.010-12.132-22.168-22.168z" />
<glyph unicode="&#xe92b;" glyph-name="target" d="M661.039 553.251c-30.327 30.326-79.492 30.326-109.815 0.002l-39.223-39.218-39.223 39.22c-30.323 30.326-79.493 30.326-109.815 0-30.326-30.324-30.326-79.494 0-109.817l149.038-149.043 149.039 149.039c30.323 30.327 30.323 79.497 0 109.817zM932.638 486.4c-18.325 202.33-179.908 363.914-382.238 382.236v91.364h-76.8v-91.364c-202.33-18.322-363.914-179.906-382.236-382.236h-91.364v-76.8h91.364c18.322-202.33 179.906-363.913 382.236-382.238v-91.362h76.8v91.362c202.33 18.325 363.913 179.908 382.238 382.238h91.362v76.8h-91.362zM855.454 409.6c-17.762-159.945-145.109-287.292-305.054-305.054v61.854h-76.8v-61.854c-159.946 17.762-287.29 145.109-305.054 305.054h61.854v76.8h-61.854c17.764 159.946 145.108 287.29 305.054 305.054v-61.854h76.8v61.854c159.945-17.764 287.292-145.108 305.054-305.054h-61.854v-76.8h61.854z" />
<glyph unicode="&#xe92c;" glyph-name="search" d="M488.516 960c-269.799 0-488.516-218.718-488.516-488.521s218.717-488.521 488.516-488.521c119.637 0 229.231 43.004 314.163 114.402l148.949-148.945c16.555-16.555 43.396-16.555 59.955 0.004 16.555 16.555 16.555 43.396 0 59.955l-148.949 148.941c71.394 84.932 114.402 194.526 114.402 314.163 0 269.802-218.718 488.521-488.521 488.521zM84.789 471.479c0 222.974 180.756 403.73 403.727 403.73s403.729-180.756 403.729-403.73c0-222.972-180.757-403.733-403.729-403.733s-403.727 180.757-403.727 403.733z" />
<glyph unicode="&#xe92d;" glyph-name="phone" d="M298.667 917.333c-22.632 0-44.337-8.99-60.34-24.994s-24.994-37.708-24.994-60.34v-768c0-22.63 8.99-44.335 24.994-60.339s37.708-24.994 60.34-24.994h426.667c22.63 0 44.335 8.99 60.339 24.994s24.994 37.709 24.994 60.339v768c0 22.632-8.99 44.337-24.994 60.34s-37.709 24.994-60.339 24.994h-426.667zM725.333 64h-426.667v768h106.667l21.333-42.667h170.667l21.333 42.667h106.667v-768z" />
<glyph unicode="&#xe92e;" glyph-name="mail" d="M938.667 832h-853.333c-11.316 0-22.168-4.495-30.17-12.497s-12.497-18.854-12.497-30.17v-682.667c0-11.315 4.495-22.17 12.497-30.17s18.854-12.497 30.17-12.497h853.333c11.315 0 22.17 4.497 30.17 12.497s12.497 18.854 12.497 30.17v682.667c0 11.316-4.497 22.168-12.497 30.17s-18.854 12.497-30.17 12.497zM896 149.333h-768v597.333h768v-597.333zM176.299 640c2.795 4.87 6.523 9.142 10.972 12.568s9.53 5.941 14.953 7.4c5.423 1.459 11.080 1.833 16.647 1.1s10.935-2.556 15.796-5.367l277.333-158.549 277.333 158.549c9.822 5.658 21.491 7.183 32.435 4.238 10.948-2.944 20.275-10.117 25.933-19.939s7.181-21.49 4.237-32.436c-2.944-10.946-10.116-20.274-19.938-25.932l-298.667-170.667c-6.447-3.682-13.739-5.619-21.163-5.619s-14.716 1.937-21.163 5.619l-298.667 170.667c-4.899 2.766-9.203 6.473-12.663 10.909s-6.010 9.512-7.501 14.937c-1.491 5.425-1.894 11.091-1.187 16.673s2.512 10.967 5.309 15.849zM371.499 393.003c7.999-8 12.492-18.85 12.492-30.165s-4.494-22.165-12.492-30.165l-85.333-85.333c-8.047-7.774-18.825-12.075-30.012-11.977s-21.888 4.587-29.799 12.497c-7.911 7.91-12.398 18.611-12.495 29.798s4.203 21.965 11.975 30.012l85.333 85.333c8.024 7.974 18.887 12.437 30.201 12.407 11.313-0.034 22.151-4.557 30.13-12.578v0.171zM798.165 307.669c4.075-3.934 7.326-8.644 9.562-13.85s3.413-10.803 3.465-16.469c0.047-5.666-1.033-11.285-3.179-16.529-2.146-5.239-5.312-10.005-9.318-14.012s-8.772-7.172-14.012-9.318c-5.244-2.146-10.863-3.226-16.529-3.179-5.666 0.051-11.264 1.229-16.469 3.465s-9.916 5.487-13.85 9.562l-85.333 85.333c-7.774 8.047-12.075 18.825-11.977 30.012s4.587 21.888 12.497 29.798c7.91 7.91 18.611 12.399 29.798 12.497s21.965-4.203 30.012-11.977l85.333-85.333z" />
<glyph unicode="&#xe92f;" glyph-name="chevron-right" d="M719.863 447.834c0-8.538-1.361-16.486-4.087-23.846s-7.403-14.353-14.037-20.983l-318.467-318.468c-9.811-9.813-22.143-14.831-36.997-15.061-14.854-0.226-27.413 4.791-37.679 15.061-10.266 10.266-15.398 22.711-15.398 37.338s5.132 27.068 15.398 37.333l288.626 288.627-288.626 288.628c-9.811 9.811-14.83 22.143-15.058 36.997s4.792 27.412 15.058 37.677c10.266 10.267 22.712 15.4 37.339 15.4 14.626 0 27.072-5.133 37.337-15.4l318.467-318.467c6.635-6.63 11.311-13.628 14.037-20.988 2.726-7.356 4.087-15.305 4.087-23.846z" />
<glyph unicode="&#xe930;" glyph-name="promotion" d="M896 618.666h-4.523c3.213 13.99 4.732 28.315 4.523 42.667 1.813 22.873-1.361 45.867-9.297 67.396s-20.446 41.079-36.672 57.303c-16.222 16.224-35.772 28.736-57.301 36.672s-44.523 11.107-67.396 9.295c-92.331 0-169.344-96.896-213.333-167.595-43.989 70.699-121.003 167.595-213.333 167.595-22.873 1.812-45.867-1.359-67.395-9.295s-41.079-20.448-57.303-36.672c-16.224-16.224-28.736-35.775-36.672-57.303s-11.107-44.523-9.295-67.396c-0.21-14.352 1.309-28.677 4.523-42.667h-4.523c-11.316 0-22.168-4.495-30.17-12.497s-12.497-18.854-12.497-30.17v-127.999c0-11.315 4.495-22.17 12.497-30.17 8.002-8.004 18.854-12.497 30.17-12.497h341.333v128h85.333v-128h341.333c11.315 0 22.17 4.493 30.17 12.497 8 8 12.497 18.854 12.497 30.17v127.999c0 11.316-4.497 22.169-12.497 30.17s-18.854 12.497-30.17 12.497zM322.389 618.666c-109.056 0-109.056 17.067-109.056 42.667 0 76.501 48.725 85.333 85.333 85.333 47.488 0 103.211-67.541 141.141-128h-117.419zM701.611 618.666h-117.419c37.931 60.459 93.867 128 141.141 128 36.608 0 85.333-8.832 85.333-85.333 0-25.6 0-42.667-109.056-42.667zM554.667 320h298.667v-213.333c0-11.315-4.497-22.17-12.497-30.17-8-8.004-18.854-12.497-30.17-12.497h-597.333c-11.316 0-22.168 4.493-30.17 12.497-8.001 8-12.497 18.854-12.497 30.17v213.333h298.667v-170.667h85.333v170.667z" />
<glyph unicode="&#xe931;" glyph-name="slots" d="M878.221 716.706l-82.274 106.956c-8.226 8.227-21.939 10.97-32.909 5.485l-32.909-16.455c-79.531-38.394-167.292-46.622-252.305-21.94-35.652 10.97-74.048 13.712-109.7 13.712h-170.033c-16.454 0-27.424-10.97-27.424-27.424v-318.126c0-16.457 10.97-27.426 27.424-27.426h109.699c16.455 0 27.425 10.97 27.425 27.426 0 43.878 35.652 79.532 82.274 79.532h79.532l-41.139-49.366c-95.984-115.183-164.546-246.818-202.94-392.171 0-5.483 0-16.452 5.485-21.939 5.485-5.483 13.712-10.97 21.94-10.97h356.52c16.452 0 27.426 10.97 27.426 27.426 0 150.835 41.135 298.927 117.922 430.566l95.987 164.546c8.226 8.227 5.487 19.197 0 30.167z" />
<glyph unicode="&#xe933;" glyph-name="withdraw" d="M853.333 917.333h-682.667c-11.316 0-22.168-4.495-30.17-12.497s-12.497-18.854-12.497-30.17v-853.333c0-11.315 4.495-22.17 12.497-30.17s18.854-12.497 30.17-12.497h682.667c11.315 0 22.17 4.497 30.17 12.497s12.497 18.854 12.497 30.17v853.333c0 11.316-4.497 22.168-12.497 30.17s-18.854 12.497-30.17 12.497zM810.667 64h-597.333v768h597.333v-768zM311.168 481.835c-7.999 8-12.492 18.85-12.492 30.165s4.494 22.164 12.492 30.165l170.667 170.667c3.964 3.974 8.67 7.126 13.854 9.277s10.743 3.258 16.354 3.258c5.611 0 11.17-1.107 16.354-3.258s9.89-5.303 13.854-9.277l170.667-170.667c4.075-3.936 7.326-8.644 9.562-13.85s3.413-10.803 3.46-16.469c0.051-5.666-1.028-11.285-3.174-16.529s-5.312-10.005-9.318-14.012c-4.006-4.006-8.768-7.172-14.012-9.318s-10.863-3.226-16.529-3.179c-5.666 0.051-11.264 1.229-16.469 3.465s-9.916 5.487-13.85 9.562l-97.92 97.835v-366.336c0-11.315-4.497-22.17-12.497-30.17s-18.854-12.497-30.17-12.497c-11.315 0-22.17 4.497-30.17 12.497s-12.497 18.854-12.497 30.17v366.336l-97.835-97.835c-8.001-8-18.852-12.493-30.165-12.493s-22.164 4.493-30.165 12.493z" />
<glyph unicode="&#xe934;" glyph-name="deposit" d="M853.333 917.333h-682.667c-11.316 0-22.168-4.495-30.17-12.497s-12.497-18.854-12.497-30.17v-853.333c0-11.315 4.495-22.17 12.497-30.17s18.854-12.497 30.17-12.497h682.667c11.315 0 22.17 4.497 30.17 12.497s12.497 18.854 12.497 30.17v853.333c0 11.316-4.497 22.168-12.497 30.17s-18.854 12.497-30.17 12.497zM810.667 64h-597.333v768h597.333v-768zM311.168 353.835c-4.075 3.934-7.325 8.644-9.562 13.85s-3.413 10.803-3.462 16.469c-0.049 5.666 1.030 11.285 3.176 16.529s5.313 10.005 9.319 14.012c4.006 4.006 8.77 7.172 14.014 9.318s10.862 3.226 16.527 3.179c5.665-0.051 11.264-1.229 16.469-3.465s9.914-5.487 13.85-9.562l97.835-97.835v366.336c0 11.316 4.497 22.168 12.497 30.17s18.854 12.497 30.17 12.497c11.315 0 22.17-4.495 30.17-12.497s12.497-18.854 12.497-30.17v-366.336l97.835 97.835c8.047 7.774 18.825 12.075 30.012 11.977s21.888-4.587 29.798-12.497c7.91-7.91 12.399-18.611 12.497-29.798s-4.203-21.965-11.977-30.012l-170.667-170.667c-3.964-3.972-8.67-7.125-13.854-9.276s-10.743-3.26-16.354-3.26c-5.611 0-11.17 1.109-16.354 3.26s-9.89 5.303-13.854 9.276l-170.581 170.667z" />
<glyph unicode="&#xe936;" glyph-name="livecasino" d="M761.694 739.728c-56.397 48.273-122.739 77.337-191.087 87.821-126.908 19.47-260.699-25.132-350.33-129.853-137.904-161.12-119.087-403.517 42.032-541.425 56.396-48.273 122.737-77.333 191.085-87.821 126.908-19.469 260.702 25.135 350.332 129.86 137.903 161.118 119.083 403.516-42.031 541.418zM836.122 336.606l-117.359 40.457c15.804 46.118 15.612 96.124 0.034 141.76l117.235 40.345c9.267-27.080 15.185-55.508 17.459-84.812 3.682-47.428-2.368-94.093-17.37-137.749zM770.257 672.763l-93.436-81.164c-6.912 7.914-14.451 15.442-22.669 22.477-29.705 25.423-64.269 41.434-100.087 48.42l23.561 121.079c57.843-11.217 111.932-37.028 157.069-75.664 12.796-10.953 24.666-22.708 35.563-35.15zM395.464 769.876c16.652 5.997 33.729 10.644 51.056 13.957l23.539-121.344c-46.080-8.981-89.585-32.771-122.766-70.825l-93.527 81.337c38.297 43.944 87.183 77.226 141.699 96.874zM187.901 559.395l117.338-40.454c-15.807-46.118-15.615-96.119-0.039-141.756l-117.333-40.38c-9.227 27.046-15.121 55.433-17.39 84.676-3.683 47.467 2.388 94.204 17.423 137.913zM253.55 223.078l93.631 81.327c6.914-7.915 14.455-15.45 22.677-22.485 29.702-25.421 64.263-41.429 100.077-48.418l-23.684-121.741c-57.83 11.264-111.866 37.359-156.989 75.985-12.861 11.004-24.775 22.818-35.712 35.332zM628.476 125.76c-16.602-5.982-33.638-10.645-50.923-13.995l-23.616 121.749c46.080 8.981 89.591 32.772 122.773 70.827l93.568-81.361c-38.31-43.994-87.262-77.564-141.803-97.22zM369.837 672.723c11.445 0 20.723 9.278 20.723 20.723s-9.278 20.724-20.723 20.724c-11.445 0-20.724-9.278-20.724-20.724s9.278-20.723 20.724-20.723zM228.364 426.931c11.445 0 20.723 9.28 20.723 20.727 0 11.443-9.278 20.723-20.723 20.723s-20.724-9.28-20.724-20.723c0-11.447 9.278-20.727 20.724-20.727zM370.487 181.508c11.445 0 20.723 9.28 20.723 20.723 0 11.447-9.278 20.723-20.723 20.723s-20.723-9.276-20.723-20.723c0-11.443 9.278-20.723 20.723-20.723zM654.093 181.888c11.443 0 20.723 9.28 20.723 20.727 0 11.443-9.28 20.723-20.723 20.723-11.447 0-20.727-9.28-20.727-20.723 0-11.447 9.28-20.727 20.727-20.727zM795.558 427.682c11.447 0 20.723 9.28 20.723 20.723 0 11.447-9.276 20.723-20.723 20.723-11.443 0-20.723-9.276-20.723-20.723 0-11.443 9.28-20.723 20.723-20.723zM653.44 673.103c11.443 0 20.723 9.278 20.723 20.724s-9.28 20.724-20.723 20.724c-11.447 0-20.723-9.278-20.723-20.724s9.276-20.724 20.723-20.724zM534.507 341.76h-44.139l12.028 34.799-1.020 0.525c-2.739-2.893-5.444-5.82-8.235-8.661-4.454-4.646-9.839-8.307-15.799-10.739-5.961-2.436-12.365-3.588-18.799-3.388s-12.757 1.749-18.551 4.553c-5.798 2.799-10.944 6.788-15.099 11.703-17.832 20.621-20.538 52.134-3.165 72.823 29.029 34.577 59.843 67.622 91.357 102.911 1.276-2.228 2.701-4.365 4.271-6.397 26.918-30.004 53.862-59.986 80.841-89.943 20.297-22.682 21.555-54.451 3.247-77.555-18.018-22.818-50.091-24.367-70.272-3.405-2.547 2.927-5.5 5.474-8.764 7.573l12.1-34.799z" />
<glyph unicode="&#xe937;" glyph-name="fishing" d="M573.504 784.98c28.561 0 57.024-4.602 84.689-13.545-5.376 7.607-11.456 14.73-18.223 21.241-26.355 25.36-60.617 39.325-96.465 39.325h-210.002c-10.436 0-19.5-7.497-21.899-18.109s2.502-21.553 11.837-26.43c29.959-15.653 52.81-41.21 65.709-71.854 0.231 0.191 0.454 0.39 0.686 0.58 54.022 44.362 119.25 68.793 183.668 68.793zM390.219 179.499c-0.36 0.294-0.708 0.602-1.066 0.9-12.899-30.647-35.75-56.205-65.712-71.859-9.333-4.877-14.233-15.821-11.836-26.432s11.463-18.108 21.898-18.108h209.999c35.853 0 70.11 13.965 96.469 39.326 6.767 6.511 12.851 13.632 18.223 21.239-27.665-8.943-56.128-13.547-84.689-13.547-64.252 0-129.344 24.32-183.285 68.48zM668.075 682.916c1.549 11.77 3.58 22.368 5.935 32.154-25.446 11.824-52.399 19.423-79.761 22.002 0.597-6.854 1.045-14.057 1.31-21.683 0.021-0.57 0.021-1.143 0-1.713-2.253-64.551-17.148-99.762-31.556-133.814-14.4-34.035-28.002-66.182-28.002-131.756s13.602-97.719 28.002-131.755c14.409-34.052 29.303-69.265 31.556-133.815 0.021-0.572 0.021-1.143 0-1.715-0.265-7.625-0.713-14.827-1.31-21.683 27.362 2.581 54.315 10.18 79.761 22.003-2.355 9.788-4.386 20.386-5.935 32.158-4.715 35.827-14.656 59.268-25.182 84.083-15.676 36.966-31.893 75.196-31.893 150.724 0 75.524 16.218 113.754 31.898 150.724 10.522 24.816 20.463 48.254 25.178 84.085zM550.558 181.679c-2.031 54.972-14.507 84.45-27.712 115.657-15.654 37.005-31.846 75.268-31.846 150.771s16.192 113.766 31.846 150.77c13.201 31.206 25.677 60.688 27.712 115.658-0.29 7.881-0.802 15.22-1.493 22.134-46.298-5.235-92.198-25.131-131.426-57.343-46.098-37.854-80.125-90.439-95.811-148.066-2.054-7.552-8.369-12.621-15.714-12.621-7.96 0-15.271 4.309-19.080 11.251-28.023 51.065-80.34 82.789-136.533 82.789-7.692 0-14.851-4.107-18.982-10.889s-4.657-15.297-1.401-22.579c18.241-40.767 27.883-86.104 27.883-131.104s-9.642-90.338-27.882-131.106c-3.258-7.279-2.73-15.795 1.401-22.579 4.131-6.78 11.289-10.889 18.981-10.889 56.193 0 108.51 31.727 136.533 82.795 3.808 6.938 11.119 11.247 19.080 11.251 7.317 0 13.73-5.427 15.957-13.508 15.825-57.417 49.882-109.781 95.896-147.452 39.151-32.051 84.932-51.853 131.093-57.075 0.695 6.912 1.207 14.255 1.498 22.135zM887.108 466.718c-29.355 23.296-52.881 55.684-68.032 93.661-21.521 53.943-58.825 99.494-104.021 130.951-0.896-4.749-1.711-9.693-2.398-14.927-5.577-42.411-17.293-70.028-28.621-96.736-14.417-33.993-28.036-66.101-28.036-131.671 0-65.574 13.619-97.685 28.036-131.678 11.328-26.705 23.040-54.323 28.617-96.734 0.691-5.235 1.502-10.18 2.398-14.929 45.201 31.458 82.5 77.009 104.021 130.953 15.155 37.978 38.677 70.366 68.036 93.662 5.602 4.446 8.892 11.375 8.892 18.726 0 7.347-3.29 14.276-8.892 18.722zM738.5 471.505c-12.425 0-22.502 10.526-22.502 23.509s10.078 23.509 22.502 23.509c12.425 0 22.498-10.526 22.498-23.509s-10.074-23.509-22.498-23.509z" />
<glyph unicode="&#xe938;" glyph-name="chevron-left" d="M293.198 448.171c0 8.542 1.363 16.491 4.088 23.846 2.726 7.36 7.405 14.353 14.036 20.988l318.467 318.466c9.813 9.812 22.144 14.831 36.996 15.058 14.857 0.228 27.413-4.791 37.679-15.058 10.266-10.266 15.398-22.711 15.398-37.337s-5.133-27.071-15.398-37.337l-288.625-288.626 288.625-288.627c9.813-9.809 14.831-22.144 15.061-36.996 0.226-14.852-4.796-27.413-15.061-37.679s-22.711-15.398-37.338-15.398c-14.626 0-27.072 5.133-37.338 15.398l-318.467 318.468c-6.631 6.635-11.31 13.628-14.036 20.988-2.726 7.356-4.088 15.305-4.088 23.846z" />
<glyph unicode="&#xe939;" glyph-name="game" d="M684.241 832c-111.569 0-202.812-86.463-210.923-195.956 58.705-13.986 110.729-44.817 150.848-87.302 3.669 0.279 8.922 0.777 16.098 1.46 7.77 0.808 7.586 1.647 10.505 2.455 3.763 1.243 6.652 3.232 8.67 5.936 1.958 2.735 2.953 6.837 2.953 12.276v101.816h-39.872v15.291h10.039c13.082 0 24.862 2.455 35.209 7.335 10.445 4.786 17.809 10.007 22.345 15.602h21.291c-0.311-7.894-0.653-17.063-1.058-27.63-0.371-10.629-0.589-20.047-0.589-28.438v-81.926c0-4.289 0.964-8.049 2.859-11.375s4.57-5.812 8.111-7.397c3.14-1.305 8.299-2.517 15.475-3.574 7.181-1.15 6.34-1.772 9.852-1.865v-19.768h-104.542c27.439-34.56 47.424-75.243 57.835-119.654 109.824 7.77 196.655 99.145 196.655 210.967-0.030 116.921-94.878 211.744-211.759 211.744zM412.433 64c-157.088 0-284.433 127.356-284.433 284.454s127.345 284.455 284.433 284.455c157.090 0 284.433-127.357 284.433-284.455s-127.343-284.454-284.433-284.454zM508.617 337.020c-7.147 11.938-16.034 21.385-26.603 28.442-11.593 7.612-23.526 12.834-35.738 15.569-12.151 2.799-24.614 4.164-37.137 4.164-16.191 0-30.269-2.146-42.296-6.558-12.027-4.352-21.816-8.981-29.399-13.739l8.733 69.867h159.953v58.432h-175.243l-20.542-155.866 16.346-5.5c7.117 8.61 15.104 15.539 23.93 20.885 8.95 5.282 19.92 7.957 33.128 7.957 16.937 0 30.735-6.404 41.364-19.238 10.689-12.71 16.099-29.030 16.099-48.922 0-13.705-1.647-25.95-4.881-36.736-3.294-10.782-8.081-20.169-14.45-28.062-5.469-6.933-12.12-12.215-19.889-15.791-7.769-3.571-15.663-5.406-23.712-5.406-3.947 0-8.173 0.311-12.68 0.964-4.537 0.619-8.484 1.583-11.84 2.859 1.523 4.318 3.481 10.722 5.874 19.051 2.455 8.299 3.636 15.974 3.636 23.031 0 10.005-3.605 18.027-10.722 24.055-7.148 5.999-16.285 9.011-27.441 9.011-10.722 0-19.237-3.482-25.701-10.441-6.402-6.899-9.634-15.292-9.634-25.395 0-16.905 9.665-31.607 29.026-44.006 19.299-12.433 43.446-18.615 72.378-18.615 37.385 0 68.122 9.822 92.143 29.525 24.115 19.674 36.113 45.035 36.113 76.083 0 17.651-3.635 32.444-10.816 44.378z" />
<glyph unicode="&#xe93a;" glyph-name="sports" horiz-adv-x="1067" d="M459.23 97.237l13.47 63.305c2.249 9.728 6.925 17.775 14.037 24.141 7.113 6.362 15.906 10.291 26.385 11.789l139.23 11.226c9.728 1.498 18.714-0.371 26.948-5.611 8.23-5.244 14.221-12.352 17.963-21.333l17.54-42.667c29.193 17.216 55.39 37.914 78.596 62.101 23.202 24.183 42.667 51.247 58.385 81.19l-13.047 7.164c-8.235 5.986-14.221 13.286-17.967 21.892-3.742 8.61-4.489 17.779-2.244 27.511l31.441 136.981c2.244 8.981 6.921 16.469 14.033 22.455 7.113 5.99 15.159 9.301 24.141 9.937-3.742 19.29-8.491 37.801-14.251 55.534-5.756 17.733-13.124 34.976-22.106 51.728-6.737-3.743-13.965-5.498-21.683-5.266s-14.571 2.594-20.557 7.085l-119.019 71.86c-8.235 5.24-14.221 12.351-17.963 21.333-3.746 8.983-4.493 18.339-2.249 28.070l9.412 38.175c-23.492 10.48-47.398 18.339-71.727 23.579s-49.216 7.86-74.667 7.86c-10.479 0-21.261-0.561-32.35-1.684-11.085-1.123-21.867-2.665-32.346-4.626l33.259-76.777c3.742-8.983 4.676-18.339 2.803-28.070-1.869-9.731-6.549-17.591-14.033-23.579l-105.544-92.070c-7.485-6.737-16.281-10.479-26.386-11.228s-19.275 1.497-27.508 6.737l-102.871 62.877c-17.501-28.445-30.93-58.947-40.287-91.509s-14.035-65.684-14.035-99.369c0-11.977 1.497-31.437 4.491-58.385l98.807 8.981c10.479 1.498 20.023-0.256 28.631-5.265s14.784-12.237 18.526-21.683l53.895-128c3.743-8.981 4.678-18.338 2.807-28.070-1.871-9.728-6.55-17.587-14.035-23.578l-42.667-35.93c20.211-14.972 41.731-27.319 64.561-37.052s46.224-16.986 70.177-21.76zM540.070 290.786c-9.732-1.498-18.714 0.375-26.948 5.615s-14.221 12.352-17.963 21.333l-60.634 139.226c-3.742 8.986-4.305 18.342-1.685 28.070 2.62 9.732 7.676 17.591 15.159 23.582l114.526 96.56c6.737 6.737 14.972 10.48 24.704 11.228 9.728 0.748 18.714-1.497 26.944-6.737l125.756-74.106c8.235-5.241 14.596-12.349 19.089-21.335 4.489-8.981 5.615-18.338 3.366-28.070l-35.93-145.963c-2.244-9.732-6.737-17.779-13.474-24.141s-14.972-10.291-24.7-11.789l-148.211-13.474zM533.41 21.312c-59.012 0-114.483 11.2-166.409 33.596s-97.093 52.791-135.5 91.183c-38.408 38.391-68.817 83.541-91.228 135.445-22.404 51.9-33.606 107.358-33.606 166.366 0 59.012 11.198 114.484 33.594 166.41s52.791 97.093 91.183 135.5c38.393 38.408 83.541 68.817 135.444 91.228 51.904 22.404 107.36 33.606 166.368 33.606 59.012 0 114.483-11.198 166.409-33.594s97.092-52.791 135.501-91.183c38.409-38.393 68.817-83.54 91.23-135.444 22.404-51.904 33.604-107.36 33.604-166.364 0-59.017-11.2-114.487-33.596-166.413s-52.787-97.092-91.183-135.501c-38.391-38.409-83.541-68.817-135.441-91.23-51.904-22.4-107.362-33.604-166.37-33.604z" />
<glyph unicode="&#xe93b;" glyph-name="logout-fill" d="M94.815-21.333c-14.775 0-27.16 4.996-37.155 14.993-9.995 9.993-14.993 22.379-14.993 37.154s4.998 27.162 14.993 37.158c9.995 9.993 22.38 14.989 37.155 14.989h52.148v730.076c0 28.681 10.213 53.234 30.637 73.659s44.978 30.637 73.659 30.637h521.481c28.681 0 53.235-10.212 73.66-30.637s30.639-44.977 30.639-73.659v-730.076h52.147c14.775 0 27.162-4.996 37.154-14.989 9.997-9.997 14.993-22.383 14.993-37.158s-4.996-27.162-14.993-37.154c-9.993-9.997-22.379-14.993-37.154-14.993h-834.371zM772.74 82.961v730.076h-234.667v57.363c38.242-6.953 69.53-24.771 93.867-53.452s36.506-62.143 36.506-100.385v-578.843c0-25.207-8.26-47.586-24.772-67.14-16.512-19.558-37.372-31.509-62.579-35.853v48.235h191.646zM459.853 395.853c14.775 0 27.162 4.996 37.154 14.993 9.997 9.993 14.993 22.379 14.993 37.154s-4.996 27.162-14.993 37.154c-9.993 9.997-22.379 14.993-37.154 14.993s-27.162-4.996-37.157-14.993c-9.995-9.993-14.992-22.379-14.992-37.154s4.998-27.162 14.992-37.154c9.995-9.997 22.381-14.993 37.157-14.993z" />
<glyph unicode="&#xe93c;" glyph-name="copy" d="M384 192c-23.467 0-43.555 8.354-60.267 25.067s-25.067 36.8-25.067 60.267v512c0 23.467 8.355 43.555 25.067 60.267s36.8 25.067 60.267 25.067h384c23.467 0 43.554-8.355 60.267-25.067s25.067-36.8 25.067-60.267v-512c0-23.467-8.354-43.554-25.067-60.267s-36.8-25.067-60.267-25.067h-384zM384 277.333h384v512h-384v-512zM213.333 21.333c-23.467 0-43.555 8.354-60.267 25.067s-25.067 36.8-25.067 60.267v554.667c0 12.089 4.089 22.222 12.267 30.4s18.311 12.267 30.4 12.267c12.089 0 22.222-4.089 30.4-12.267s12.267-18.311 12.267-30.4v-554.667h426.667c12.087 0 22.221-4.087 30.4-12.267s12.267-18.313 12.267-30.4c0-12.087-4.087-22.221-12.267-30.4s-18.313-12.267-30.4-12.267h-426.667z" />
<glyph unicode="&#xe93d;" glyph-name="history-fill" d="M768 874.667h-512c-22.632 0-44.337-8.99-60.34-24.994s-24.994-37.708-24.994-60.34v-768l128 170.667 85.333-170.667 128 170.667 128-170.667 85.333 170.667 128-170.667v768c0 22.632-8.99 44.337-24.994 60.34s-37.709 24.994-60.339 24.994zM512 362.667h-213.333v85.333h213.333v-85.333zM725.333 576h-426.667v85.333h426.667v-85.333z" />
<glyph unicode="&#xe93e;" glyph-name="coin12-fill" d="M896 338.304c0-80.811-105.045-146.304-234.667-146.304s-234.667 65.493-234.667 146.304c0 80.811 105.045 146.261 234.667 146.261s234.667-65.493 234.667-146.261zM661.333 112.768c-129.621 0-234.667 65.493-234.667 146.261v-91.392c0-80.811 105.045-146.304 234.667-146.304s234.667 65.493 234.667 146.304v91.392c0-80.768-105.045-146.261-234.667-146.261zM362.667 582.101c129.621 0 234.667 65.493 234.667 146.261s-105.045 146.304-234.667 146.304c-129.621 0-234.667-65.493-234.667-146.304s105.045-146.261 234.667-146.261zM357.333 411.435c20.273 42.419 52.653 77.888 93.056 101.931-28.692-7.142-58.155-10.726-87.723-10.667-129.621 0.171-234.667 65.664-234.667 146.432v-91.392c0-79.872 102.4-144.341 229.333-146.133v-0.171zM362.667 21.333c15.39 0.013 30.764 0.964 46.037 2.859-26.808 24.137-46.941 54.775-58.453 88.96-123.819 4.053-222.251 67.712-222.251 145.877v-91.392c0-80.811 105.045-146.304 234.667-146.304zM341.333 210.944v91.989c-119.467 6.827-213.333 68.821-213.333 145.067v-91.435c0-76.288 93.867-138.965 213.333-145.621z" />
<glyph unicode="&#xe93f;" glyph-name="withdraw-fill" d="M810.667 874.667h-597.333c-11.316 0-22.168-4.495-30.17-12.497s-12.497-18.854-12.497-30.17v-768c0-11.315 4.495-22.17 12.497-30.17s18.854-12.497 30.17-12.497h597.333c11.315 0 22.17 4.497 30.17 12.497s12.497 18.854 12.497 30.17v768c0 11.316-4.497 22.168-12.497 30.17s-18.854 12.497-30.17 12.497zM712.832 481.835c-8-8-18.85-12.493-30.165-12.493s-22.165 4.493-30.165 12.493l-97.835 97.835v-366.336c0-11.315-4.497-22.17-12.497-30.17s-18.854-12.497-30.17-12.497c-11.315 0-22.17 4.497-30.17 12.497s-12.497 18.854-12.497 30.17v366.336l-97.835-97.835c-3.936-4.075-8.644-7.326-13.85-9.562s-10.804-3.413-16.469-3.465c-5.665-0.047-11.284 1.033-16.527 3.179s-10.007 5.312-14.014 9.318c-4.006 4.006-7.174 8.768-9.319 14.012s-3.225 10.863-3.176 16.529c0.049 5.666 1.226 11.264 3.462 16.469s5.487 9.914 9.562 13.85l170.667 170.667c3.964 3.974 8.67 7.126 13.854 9.277s10.743 3.258 16.354 3.258c5.611 0 11.17-1.107 16.354-3.258s9.89-5.303 13.854-9.277l170.667-170.667c7.987-8.012 12.467-18.867 12.45-30.182s-4.527-22.157-12.535-30.148z" />
<glyph unicode="&#xe940;" glyph-name="home" d="M585.86 21.333c147.051 0 220.578 0 270.716 43.17 50.133 43.17 60.531 115.435 81.331 259.968l11.891 82.658c16.192 112.516 24.286 168.773 1.225 216.873-23.057 48.1-72.141 77.338-170.304 135.814l-59.089 35.197c-89.139 53.102-133.713 79.653-182.963 79.653s-93.824-26.551-182.965-79.653l-59.087-35.197c-98.164-58.476-147.246-87.714-170.306-135.814s-14.965-104.356 1.225-216.873l11.894-82.658c20.796-144.533 31.194-216.798 81.331-259.968s123.663-43.17 270.714-43.17h94.387zM384.963 296.397c10.524 14.199 30.566 17.178 44.763 6.652 31.078-23.031 68.587-36.373 108.945-36.373s77.867 13.342 108.945 36.373c14.199 10.526 34.24 7.548 44.762-6.652 10.526-14.195 7.548-34.24-6.652-44.762-41.489-30.754-92.228-48.96-147.055-48.96s-105.566 18.206-147.055 48.96c-14.198 10.522-17.176 30.566-6.653 44.762z" />
<glyph unicode="&#xe941;" glyph-name="deposit-fill" d="M810.667 874.667h-597.333c-11.316 0-22.168-4.495-30.17-12.497s-12.497-18.854-12.497-30.17v-768c0-11.315 4.495-22.17 12.497-30.17s18.854-12.497 30.17-12.497h597.333c11.315 0 22.17 4.497 30.17 12.497s12.497 18.854 12.497 30.17v768c0 11.316-4.497 22.168-12.497 30.17s-18.854 12.497-30.17 12.497zM712.832 353.835l-170.667-170.667c-3.964-3.972-8.67-7.125-13.854-9.276s-10.743-3.26-16.354-3.26c-5.611 0-11.17 1.109-16.354 3.26s-9.89 5.303-13.854 9.276l-170.667 170.667c-4.075 3.934-7.325 8.644-9.562 13.85s-3.413 10.803-3.462 16.469c-0.049 5.666 1.030 11.285 3.176 16.529s5.313 10.005 9.319 14.012c4.006 4.006 8.77 7.172 14.014 9.318s10.862 3.226 16.527 3.179c5.665-0.051 11.264-1.229 16.469-3.465s9.914-5.487 13.85-9.562l97.92-97.835v366.336c0 11.316 4.497 22.168 12.497 30.17s18.854 12.497 30.17 12.497c11.315 0 22.17-4.495 30.17-12.497s12.497-18.854 12.497-30.17v-366.336l97.835 97.835c8.047 7.774 18.825 12.075 30.012 11.977s21.888-4.587 29.798-12.497c7.91-7.91 12.399-18.611 12.497-29.798s-4.203-21.965-11.977-30.012z" />
<glyph unicode="&#xe942;" glyph-name="download" d="M512 300.821c-6.37 0-12.467 1.101-18.291 3.307-5.833 2.206-11.136 5.692-15.915 10.462l-157.421 157.431c-9.557 9.557-14.201 20.873-13.931 33.95s4.914 24.393 13.931 33.943c9.721 9.728 21.213 14.727 34.475 14.997 13.269 0.27 24.765-4.455 34.485-14.176l74.133-74.133v282.869c0 13.617 4.685 25.113 14.050 34.485 9.37 9.365 20.864 14.048 34.483 14.048s25.114-4.683 34.487-14.048c9.365-9.373 14.046-20.868 14.046-34.485v-282.869l74.133 74.133c9.549 9.721 20.962 14.489 34.231 14.304 13.261-0.185 24.751-5.141 34.475-14.869 9.186-9.722 13.914-21.079 14.187-34.071 0.269-12.992-4.459-24.35-14.187-34.078l-157.163-157.431c-4.779-4.77-10.086-8.256-15.915-10.462-5.824-2.206-11.925-3.307-18.295-3.307zM259.061 97.993c-26.865 0-49.76 9.463-68.683 28.386s-28.384 41.818-28.384 68.681v79.467c0 13.619 4.683 25.114 14.048 34.487 9.373 9.365 20.868 14.046 34.485 14.046s25.113-4.681 34.485-14.046c9.365-9.374 14.048-20.868 14.048-34.487v-79.467h505.879v79.467c0 13.619 4.681 25.114 14.046 34.487 9.374 9.365 20.868 14.046 34.487 14.046 13.615 0 25.109-4.681 34.483-14.046 9.365-9.374 14.050-20.868 14.050-34.487v-79.467c0-26.863-9.463-49.758-28.386-68.681s-41.818-28.386-68.681-28.386h-505.879z" />
<glyph unicode="&#xe943;" glyph-name="accoun-box-fill" d="M512 874.667c-84.386 0-166.878-25.024-237.043-71.906s-124.852-113.519-157.145-191.482c-32.294-77.962-40.743-163.752-24.28-246.516s57.099-158.788 116.77-218.462c59.67-59.669 135.695-100.305 218.46-116.77 82.765-16.461 168.555-8.013 246.515 24.282 77.965 32.294 144.602 86.98 191.484 157.146s71.906 152.657 71.906 237.043c0 56.030-11.038 111.513-32.478 163.278s-52.868 98.801-92.489 138.421c-39.62 39.619-86.656 71.048-138.423 92.49-51.763 21.442-107.247 32.478-163.277 32.478zM512 661.333c25.314 0 50.065-7.507 71.113-21.572 21.052-14.065 37.457-34.056 47.142-57.445 9.69-23.389 12.224-49.124 7.287-73.956-4.941-24.828-17.131-47.637-35.034-65.536-17.899-17.903-40.708-30.093-65.536-35.034-24.832-4.937-50.569-2.402-73.954 7.287-23.39 9.685-43.382 26.091-57.446 47.142-14.065 21.047-21.572 45.798-21.572 71.113 0 33.948 13.486 66.505 37.49 90.51s56.564 37.49 90.51 37.49zM512 106.667c-82.965-0.004-163.066 30.349-225.195 85.333 62.167 54.908 142.251 85.21 225.195 85.21s163.029-30.302 225.195-85.21c-62.127-54.985-142.229-85.338-225.195-85.333z" />
<glyph unicode="&#xe944;" glyph-name="coin12" d="M362.667-21.333c51.207-0.307 101.965 9.557 149.333 29.013 47.317-19.622 98.112-29.491 149.333-29.013 155.52 0 277.333 82.987 277.333 188.971v176.725c0 105.984-121.813 188.971-277.333 188.971-7.211 0-14.293-0.341-21.333-0.725v199.851c0 103.808-121.813 184.875-277.333 184.875s-277.333-81.067-277.333-184.875v-568.917c0-103.808 121.813-184.875 277.333-184.875zM853.333 167.637c0-49.024-78.848-103.637-192-103.637s-192 54.613-192 103.637v39.467c57.779-35.14 124.386-53.065 192-51.669 67.614-1.395 134.221 16.529 192 51.669v-39.467zM661.333 448c113.152 0 192-54.613 192-103.637s-78.848-103.595-192-103.595c-113.152 0-192 54.613-192 103.595s78.848 103.637 192 103.637zM362.667 832c113.152 0 192-52.48 192-99.541s-78.848-99.584-192-99.584c-113.152 0-192 52.48-192 99.584s78.848 99.541 192 99.541zM170.667 598.101c58.021-34.457 124.534-51.972 192-50.56 67.465-1.412 133.978 16.103 192 50.56v-78.848c-46.498-11.721-89.143-35.349-123.733-68.565-22.433-4.855-45.314-7.343-68.267-7.424-113.152 0-192 52.48-192 99.541v55.296zM170.667 408.448c58.033-34.423 124.54-51.921 192-50.517 7.595 0 14.933 0.939 22.4 1.323-0.636-4.941-0.992-9.911-1.067-14.891v-88.96c-7.168-0.427-14.080-1.792-21.333-1.792-113.152 0-192 52.48-192 99.584v55.253zM170.667 218.837c58.021-34.458 124.534-51.972 192-50.56 7.168 0 14.208 0.555 21.333 0.896v-1.536c0.611-36.322 14.568-71.147 39.211-97.835-19.963-3.767-40.228-5.713-60.544-5.803-113.152 0-192 52.48-192 99.541v55.296z" />
<glyph unicode="&#xe945;" glyph-name="youtube" d="M443.8 349.399l167.6 98.401-167.6 98.4v-196.801zM512 960c-282.8 0-512-229.2-512-512 0-282.798 229.2-512 512-512 282.798 0 512 229.202 512 512 0 282.8-229.202 512-512 512zM768 356.398c0-88.197-88.202-88.197-88.202-88.197h-335.598c-88.2 0-88.2 88.197-88.2 88.197v183.002c0 88.2 88.2 88.2 88.2 88.2h335.598c88.202 0 88.202-88.2 88.202-88.2v-183.002z" />
<glyph unicode="&#xe946;" glyph-name="facebook" d="M511.999 960c-281.6 0-511.999-230.811-511.999-515.087 0-257.024 187.391-470.359 432.127-508.913v359.839h-130.048v149.074h130.048v113.61c0 129.028 76.288 199.968 193.537 199.968 55.808 0 114.176-9.767 114.176-9.767v-126.972h-64.512c-63.488 0-83.456-39.582-83.456-80.194v-96.645h142.336l-23.040-149.074h-119.296v-359.839c120.648 19.133 230.513 80.937 309.755 174.264 79.242 93.322 122.65 212.019 122.373 334.648 0 284.276-230.4 515.087-512.001 515.087z" />
<glyph unicode="&#xe947;" d="M512 960c282.77 0 512-229.23 512-512s-229.23-512-512-512c-282.77 0-512 229.23-512 512s229.23 512 512 512z" />
<glyph unicode="&#xe948;" d="M819.2 499.469c0 112.78-114.842 204.531-256 204.531s-256-91.752-256-204.531c0-112.781 114.842-204.531 256-204.531 11.868 0 23.777 0.655 35.487 1.946 54.369-32.906 94.51-50.913 119.383-53.55 0.865-0.087 1.736-0.133 2.591-0.133 7.992 0 15.386 3.794 19.789 10.153 4.925 7.117 5.243 16.148 0.86 23.516-0.205 0.353-19.4 33.72-13.865 65.597 58.409 38.938 91.756 95.841 91.756 157.002zM493.677 468.579c-20.945 0-37.921 16.176-37.921 36.128 0 19.954 16.975 36.128 37.921 36.128 20.94 0 37.923-16.176 37.923-36.128s-16.978-36.128-37.923-36.128zM632.73 468.579c-20.946 0-37.924 16.176-37.924 36.128 0 19.954 16.978 36.128 37.924 36.128s37.924-16.176 37.924-36.128c0-19.952-16.983-36.128-37.924-36.128z" />
<glyph unicode="&#xe949;" glyph-name="table-games" d="M253.426 586.871c23.332 21.953 52.269 37.044 83.625 43.611v70.717c-51.666-7.407-99.6-31.172-136.775-67.81l53.15-46.518zM372.043 704h122.46v-69.978h-122.46v69.978zM651.955 319.114c77.297 0 139.965 62.664 139.965 139.958 0 77.297-62.669 139.957-139.965 139.957h-279.912c-77.295 0-139.962-62.661-139.962-139.957s62.666-139.958 139.962-139.958h279.912zM337.051 287.662c-31.357 6.564-60.294 21.658-83.625 43.612l-53.15-46.52c37.173-36.639 85.108-60.401 136.775-67.809v70.717zM198.863 441.574h-70.857c3.351-47.365 20.496-92.713 49.318-130.447l52.905 46.295c-17.67 24.806-28.488 53.832-31.365 84.152h-0.002zM198.863 476.569c2.876 30.319 13.694 59.343 31.365 84.147l-52.905 46.301c-28.821-37.736-45.966-83.083-49.323-130.447h70.863zM825.139 441.574c-2.877-30.321-13.696-59.346-31.365-84.147l52.915-46.31c28.815 37.74 45.957 83.092 49.311 130.458h-70.861zM529.495 704h122.46v-69.978h-122.46v69.978zM793.774 560.715c17.669-24.804 28.488-53.828 31.365-84.147h70.856c-3.354 47.365-20.495 92.713-49.316 130.454l-52.905-46.307zM372.043 284.124h122.46v-69.98h-122.46v69.98zM529.495 284.124h122.46v-69.98h-122.46v69.98zM770.575 331.274c-23.332-21.955-52.27-37.043-83.625-43.612v-70.717c51.666 7.409 99.599 31.171 136.776 67.809l-53.151 46.52zM686.95 701.199v-70.717c31.355-6.57 60.288-21.66 83.625-43.611l53.151 46.518c-37.176 36.639-85.11 60.404-136.776 67.81z" />
<glyph unicode="&#xe94a;" glyph-name="sic-bo" d="M765.445 755.2h-506.89c-29.697 0-53.755-24.080-53.755-53.755v-506.89c0-29.696 24.080-53.755 53.755-53.755h506.89c29.696 0 53.755 24.079 53.755 53.755v506.89c0 29.697-24.079 53.755-53.755 53.755zM699.11 704.936c38.564 0 69.827-31.264 69.827-69.823s-31.263-69.823-69.827-69.823c-38.559 0-69.821 31.264-69.821 69.823s31.263 69.823 69.821 69.823zM324.887 704.936c38.559 0 69.823-31.264 69.823-69.823s-31.264-69.823-69.823-69.823c-38.559 0-69.823 31.264-69.823 69.823s31.264 69.823 69.823 69.823zM324.887 191.043c-38.559 0-69.823 31.263-69.823 69.821s31.264 69.821 69.823 69.821c38.559 0 69.823-31.263 69.823-69.821s-31.264-69.821-69.823-69.821zM324.887 378.179c-38.559 0-69.823 31.263-69.823 69.821s31.264 69.823 69.823 69.823c38.559 0 69.823-31.264 69.823-69.823s-31.264-69.821-69.823-69.821zM699.11 191.043c-38.559 0-69.821 31.263-69.821 69.821s31.263 69.821 69.821 69.821c38.564 0 69.827-31.263 69.827-69.821s-31.263-69.821-69.827-69.821zM699.11 378.179c-38.559 0-69.821 31.263-69.821 69.821s31.263 69.823 69.821 69.823c38.564 0 69.827-31.264 69.827-69.823s-31.263-69.821-69.827-69.821z" />
<glyph unicode="&#xe94b;" glyph-name="dice" d="M217.938 38.38c-13.354 6.282-17.649 16.773-17.927 31.432-3.141 167.132-6.816 334.249-10.342 501.362-1.795 85.555-3.547 171.131-5.256 256.686-0.406 20.684 8.59 29.551 29.508 29.573 15.192 0 30.406 0.042 45.598 0 17.585-0.043 27.478-9.743 27.137-27.158-1.731-87.691-3.569-175.383-5.406-263.074-1.88-90.085-3.803-180.193-5.705-270.275-1.624-77.844-3.29-155.663-4.765-233.503-0.235-12.652-7.479-19.722-17.671-25.021l-35.171-0.020zM502.741 38.38c-4.957 1.772-10.043 3.205-14.829 5.34-26.41 11.771-40.726 40.899-33.846 68.526 7.179 28.867 33.226 47.969 62.67 45.957 27.5-1.859 51.369-23.931 54.81-50.637 3.932-30.449-12.928-57.436-41.457-66.391-2.734-0.855-5.427-1.859-8.141-2.796h-19.207zM694.743 38.38c-4.961 1.772-10.045 3.205-14.833 5.34-26.409 11.771-40.724 40.899-33.843 68.526 7.178 28.867 33.224 47.969 62.669 45.957 27.5-1.859 51.369-23.931 54.81-50.637 3.932-30.449-12.928-57.436-41.457-66.391-2.734-0.855-5.427-1.859-8.141-2.796h-19.205zM378.971 569.843c2.607 21.837 10.043 41.090 19.423 59.722 14.722 29.188 34.337 55.085 54.615 80.512 1.496 1.881 4.829 3.248 7.307 3.248 98.608 0.17 197.219 0.15 295.831 0.042 2.35 0 5.596-0.834 6.922-2.5 25.661-32.414 50.749-65.277 65.362-104.507 4.316-11.56 6.861-23.782 10.45-36.517h-459.91zM840.3 521c0-24.594 0.297-48.546-0.108-72.499-0.215-12.778-10.404-22.245-23.25-22.926-2.135-0.108-4.27-0.046-6.385-0.046-134.871 0-269.722 0-404.592 0-20.897 0-29.594 8.699-29.615 29.554 0 21.816 0 43.611 0 65.918h463.949zM607.549 761.449c-42.373 0-84.721 0.106-127.093-0.129-5.321-0.021-7.799 1.688-10.278 6.389-8.205 15.555-13.098 31.346-7.863 49.016 7.030 23.782 27.693 40.427 52.46 40.556 62.346 0.321 124.698 0.534 187.023-0.043 39.834-0.363 65.577-41.175 50.109-77.905-5.012-11.909-13.967-17.863-26.86-17.863-39.168 0-78.331 0-117.499 0v-0.022zM452.451 290.109c-0.171 33.055 26.623 60.083 59.657 60.191 33.101 0.087 59.955-26.583 60.109-59.72 0.148-33.060-26.644-60.109-59.658-60.196-33.056-0.108-59.936 26.624-60.107 59.745v-0.020zM764.216 290.642c0.215-33.034-26.583-60.15-59.571-60.278-33.080-0.128-59.96 26.537-60.196 59.679-0.21 33.034 26.563 60.129 59.576 60.257 33.116 0.128 59.976-26.496 60.191-59.658z" />
<glyph unicode="&#xe94c;" glyph-name="crab-gourd" d="M554.117 857.599c-200.578 0.246-401.058-86.64-498.93-285.066 117.086 19.97 227.3-12.164 331.5-68 140.366 79.176 289.46 89.736 429.001 37.75 21.028 82.076 85.202 127.98 178.934 149-108.027 106.064-274.299 166.104-440.499 166.312l-0.005 0.004zM698.373 530.785c-22.804 0-41.19-18.494-41.19-42.188 0-23.7 18.386-42.19 41.19-42.19 22.799 0 41.185 18.49 41.185 42.186 0 23.692-18.381 42.186-41.185 42.186v0.006zM532.746 522.409c-22.803 0-41.187-18.492-41.187-42.188 0-23.69 18.386-42.185 41.187-42.185 22.799 0 41.19 18.495 41.19 42.189 0 23.7-18.386 42.19-41.19 42.19v-0.006zM935.685 514.034c-8.325-0.22-17.556-2.668-27.878-7.624-23.583-11.33-51.507-37.488-77.245-81.624l-6.502-11.126-12.687 2.125c-54.226 9.027-93.67 0.379-128.123-23.624-26.711-18.611-50.596-47.759-73.19-86.753 43.822 9.923 89.057 17.341 137.001 16.63l3.251-0.067c14.367 11.054 29.368 24.627 45.496 41.626-10.9-26.004-21.688-52.301-35.876-75.817-0.031-0.067-0.087-0.123-0.123-0.184-21.719-39.89-66.836-72.146-111.186-99.441 60.052-43.602 123.878-53.125 179.999-37.811 62.51 17.050 115.748 65.167 141.133 135.311 21.78 60.201 28.349 110.136 25.124 147.246-3.231 37.116-16.123 60.589-30.94 71.752-7.409 5.58-15.524 8.852-24.75 9.312-1.152 0.060-2.309 0.094-3.497 0.060l-0.005 0.008zM120.679 440.847c-33.404-0.927-52.596-13.773-62.56-34.499-10.632-22.113-10.18-57.544 9.624-101.811 19.804-44.278 58.47-96.44 119.686-149.878 71.090-62.049 159.52-82.499 239.126-62.561 73.176 18.324 139.333 70.595 178.25 159.811-41.37 0.901-79.34 2.529-113.312 12.559-0.26 0.061-0.5 0.133-0.752 0.189-60.284 14.397-96.39 44.216-142.44 89.815 34.732-18.371 64.93-28.503 92-33.188l0.254 0.123c51.524 30.054 76.611 41.58 119 54.313-96.968 63.401-180.555 53.34-258.44 6.569l-4.436-2.688h-10.688l-4.628 2.934c-63.286 40.622-116.134 57.59-153.812 58.312-2.354 0.046-4.648 0.061-6.876 0h0.004z" />
<glyph unicode="&#xe94d;" glyph-name="lucky" d="M475.663 448.912c-52.145 52.279-132.793 132.769-163.741 163.293-8.040 7.904-12.737 12.512-12.737 12.512-45.020 45.044-118.027 45.044-163.021 0-45.020-45.009-45.020-118.028 0-163.021 0 0 4.98-4.906 13.455-13.245-8.474-8.612-13.455-13.676-13.455-13.676-45.020-45.020-45.020-118.016 0-163.021 44.997-45.010 118.003-45.010 163.021 0 0 0 5.253 5.366 14.173 14.392 31.988 32.497 110.989 111.585 162.304 162.765zM873.677 447.063c8.525 8.549 13.578 13.579 13.578 13.579 45.317 44.686 45.834 117.692 1.142 163.010-44.677 45.331-117.673 45.863-163.021 1.178 0 0-5.289-5.326-14.269-14.296-32.225-32.26-111.78-110.791-163.456-161.597 51.758-52.654 131.814-133.724 162.565-164.459 7.977-7.956 12.636-12.6 12.636-12.6 44.698-45.368 117.699-45.885 163.041-1.178 45.317 44.698 45.834 117.693 1.162 163.021 0 0-4.951 4.946-13.379 13.343zM350.173 646.637c32.482-31.988 111.585-110.99 162.748-162.303 52.28 52.156 132.782 132.781 163.282 163.752 7.905 8.038 12.524 12.736 12.524 12.736 45.036 45.007 45.036 118.014 0 163.021-45.020 45.009-118.011 45.009-163.021 0 0 0-4.92-4.992-13.245-13.466-8.607 8.474-13.674 13.466-13.674 13.466-45.007 45.009-118.014 45.009-163.021 0-45.020-45.007-45.020-118.014 0-163.021 0 0 5.365-5.265 14.408-14.185zM674.524 248.893c-32.256 32.21-110.792 111.77-161.597 163.456-52.638-51.773-133.723-131.825-164.457-162.575-7.954-7.987-12.599-12.646-12.599-12.646-45.367-44.687-45.887-117.683-1.176-163.021 44.699-45.332 117.692-45.855 163.021-1.167 0 0 4.944 4.956 13.343 13.368 8.545-8.525 13.578-13.568 13.578-13.568 44.698-45.327 117.693-45.85 163.021-1.152 45.343 44.687 45.86 117.693 1.178 163.011 0 0-5.33 5.299-14.31 14.295z" />
<glyph unicode="&#xe94e;" glyph-name="card" d="M102.4 704v-512c0-84.833 68.769-153.6 153.6-153.6h512c84.833 0 153.6 68.767 153.6 153.6v512c0 84.831-68.767 153.6-153.6 153.6h-512c-84.831 0-153.6-68.769-153.6-153.6zM538.056 267.182v79.616c13.225 8.637 24.243 15.954 33.060 21.949 11.638 7.936 22.134 15.519 31.478 22.748 22.216 17.106 41.523 34.734 57.923 52.9 6.702 7.228 12.872 14.457 18.514 21.687 6.876 8.817 12.872 17.369 17.987 25.656 12.518 20.631 18.78 38.969 18.78 55.015 0 25.92-12.611 38.88-37.821 38.88-16.579 0-28.657-6.789-36.239-20.366-5.642-10.051-8.904-24.333-9.784-42.848h-97.597c0.527 19.396 2.294 35.354 5.289 47.873 3.528 15.869 9.697 30.593 18.514 44.17 13.051 20.102 30.945 35.53 53.693 46.286 21.161 9.874 44.436 14.812 69.827 14.812 27.505 0 52.106-5.642 73.795-16.927 23.803-12.343 41.257-30.152 52.367-53.428 6.876-15.517 10.317-30.858 10.317-46.022 0-20.631-4.147-41.085-12.431-61.363-7.229-17.986-17.812-36.147-31.739-54.486-11.464-15.165-25.743-31.119-42.849-47.872-6.876-6.702-14.633-13.932-23.276-21.688-5.996-5.642-13.665-12.431-23.009-20.367h135.946v-86.226h-282.742zM441.517 293.361c-29.271-22.569-62.861-33.853-100.772-33.853-24.509 0-47.697 4.588-69.561 13.752-24.863 10.051-43.377 24.248-55.544 42.583-6.877 10.404-12.079 21.78-15.605 34.12-2.821 10.051-5.025 22.395-6.612 37.033h103.417c5.642-25.042 21.159-37.56 46.551-37.56 28.918 0 43.377 14.986 43.377 44.964 0 20.454-11.021 33.239-33.062 38.354-7.758 1.761-17.545 2.642-29.359 2.642l-27.507-0.261v75.378h11.373c4.408 0 8.287 0.089 11.638 0.265 8.817 0.706 16.134 2.116 21.953 4.232 15.164 5.643 22.746 17.457 22.746 35.442 0 23.452-9.345 35.177-28.036 35.177-20.454 0-30.946-11.549-31.475-34.649h-100.772c0.529 38.616 14.106 69.386 40.732 92.308 25.215 21.512 57.307 32.268 96.276 32.268 33.679 0 62.597-9.61 86.754-28.83 25.92-20.807 38.88-47.697 38.88-80.67 0-36.853-17.633-64.801-52.899-83.845 50.078-17.104 75.116-49.458 75.116-97.069 0-36.675-15.869-67.267-47.608-91.781z" />
<glyph unicode="&#xe94f;" glyph-name="super-trunfo" d="M643.2 827.226c-5.453 21.797-28.611 35.422-49.050 28.61l-461.851-104.905c-21.799-5.449-34.060-28.61-28.61-50.407l168.937-632.15c2.725-10.9 9.536-19.077 19.074-24.525 6.812-4.086 13.623-5.448 20.435-5.448 4.087 0 6.813 0 10.899 1.362l8.175 2.724c-8.175 10.9-12.261 24.525-12.261 38.149v68.116c-5.449 0-10.9 4.091-13.623 9.539-14.987 57.221-31.335 114.442-46.322 173.025-16.35 57.216-31.337 115.799-46.324 171.66-1.362 6.812 2.725 14.987 9.537 16.349s14.986-2.725 16.348-9.537c14.987-57.22 31.335-114.441 46.322-171.662 10.899-40.868 23.161-83.103 34.060-123.976v391.006c-5.449-5.449-13.623-4.087-19.074 1.362l-19.074 21.799c0 0-1.362 0.001-1.362-1.361l-53.133-13.623c-1.361 0-1.361 0-2.725 0l-5.449-28.61c-1.362-6.813-6.813-10.899-13.623-10.899-1.362 0-1.362 0-2.725 0-6.812 1.362-12.261 8.174-10.899 16.348l24.523 118.529c1.362 5.449 5.449 9.536 9.536 10.899 5.449 1.362 10.9 0 13.623-4.087l80.381-89.918v108.989c0 38.148 29.974 68.12 68.12 68.12h264.306l-8.172 24.525zM863.913 775.45h-476.841c-23.161 0-40.871-17.711-40.871-40.871v-653.949c0-23.163 17.71-40.873 40.871-40.873h476.836c23.163 0 40.873 17.71 40.873 40.873v653.947c0 23.161-17.71 40.873-40.868 40.873zM591.432 720.954h245.233c8.172 0 13.624-5.449 13.624-13.623v-407.36c0-8.172-5.453-13.619-13.624-13.619-8.177 0-13.624 5.448-13.624 13.619v393.734h-231.608c-8.177 0-13.624 5.449-13.624 13.623s5.448 13.626 13.624 13.626zM400.696 707.329c0 8.174 5.449 13.623 13.623 13.623s13.623-5.449 13.623-13.623v-43.597l43.598 53.134c5.449 5.449 13.623 6.813 19.074 1.362s6.813-13.623 1.362-19.074l-36.784-43.596 50.409-76.294c4.087-6.812 2.725-14.987-4.087-19.074 0-1.362-2.725-2.725-5.449-2.725-4.087 0-8.175 2.725-10.899 5.449l-46.322 69.483-10.899-12.261v-49.046c0-8.174-5.449-13.623-13.623-13.623s-13.623 5.449-13.623 13.623v136.239h-0.002zM686.797 94.254l-272.477-1.362c-4.087 0-6.813 1.362-9.536 4.086-2.725 2.724-4.087 5.448-4.087 9.533v408.72c0 8.175 5.449 13.623 13.623 13.623s13.623-5.449 13.623-13.623v-395.096l258.854 1.362c8.177 0 13.624-5.448 13.624-13.624 0-6.81-5.448-13.619-13.624-13.619zM681.349 287.713l12.262-29.978c2.724-5.448 2.724-12.257-1.362-17.71-4.086-5.448-9.539-9.533-16.348-9.533h-100.818c-6.815 0-13.624 4.086-16.348 9.533-2.724 5.453-4.086 12.262-1.362 17.71l9.533 29.978c-6.81-2.729-12.257-2.729-19.072-2.729-25.887 0-50.409 10.9-68.12 29.972-17.711 17.71-25.886 42.235-24.523 65.398 1.362 27.249 17.71 53.135 44.958 70.845 13.626 8.174 25.888 13.623 39.507 13.623-4.086 9.536-5.448 21.799-5.448 34.060 0 27.248 12.262 53.133 34.063 70.845 21.796 17.711 49.044 24.523 76.293 17.711 35.42-6.813 62.669-35.423 69.484-70.845 4.086-19.074 2.724-36.784-2.729-51.771 13.624-1.362 25.887-5.449 39.511-14.987 27.249-17.708 43.597-42.233 44.959-70.843 1.362-24.525-6.815-47.688-24.525-65.398-17.71-19.072-43.597-29.972-68.116-29.972-8.177 1.367-14.991 2.729-21.801 4.091zM853.012 107.873h-2.724c0-8.172-5.453-13.619-13.624-13.619-8.177 0-13.624 5.448-13.624 13.619v43.597l-43.597-53.13c-2.724-2.724-6.815-4.086-10.9-4.086-2.724 0-6.81 1.362-8.172 2.724-5.453 5.448-6.815 13.624-1.362 19.072l36.782 43.597-50.406 76.293c-4.091 6.815-2.729 14.986 4.086 19.077 6.81 4.086 14.986 2.724 19.072-4.091l46.321-69.478 10.9 12.257v50.412c0 8.172 5.448 13.624 13.624 13.624s13.624-5.453 13.624-13.624v-136.243z" />
<glyph unicode="&#xe950;" glyph-name="wheel-of-fortune" d="M408.905 499.654c8.928 12.674 20.283 23.596 33.458 32.184l-109.721 254.842c-82.053-38.717-148.413-102.553-188.663-181.482l264.926-105.545zM899.272 304.108c29.773 83.195 29.773 173.571 0 256.762l-264.924-105.545c3.021-15.067 3.021-30.55 0-45.618l264.924-105.6zM581.77 531.838c13.174-8.588 24.53-19.511 33.459-32.184l264.924 105.545c-40.248 78.929-106.609 142.765-188.662 181.482l-109.722-254.842zM442.363 333.123c-13.175 8.586-24.529 19.507-33.458 32.184l-264.926-105.549c40.249-78.925 106.61-142.761 188.663-181.478l109.721 254.843zM389.655 409.667c-3.021 15.068-3.021 30.551 0 45.618l-264.926 105.545c-29.772-83.191-29.772-173.568 0-256.763l264.926 105.6zM615.229 365.327c-8.929-12.677-20.285-23.598-33.459-32.184l109.722-254.843c82.053 38.717 148.413 102.554 188.662 181.478l-264.924 105.549zM535.823 314.721c-15.662-2.908-31.758-2.908-47.421 0l-109.721-254.843c86.483-28.636 180.438-28.636 266.919 0l-109.778 254.843zM512.251 504.448c-14.794 0-29.258-4.22-41.56-12.128s-21.891-19.146-27.553-32.295c-5.662-13.151-7.144-27.62-4.257-41.577 2.887-13.962 10.012-26.783 20.474-36.849 10.462-10.061 23.792-16.916 38.304-19.692 14.511-2.775 29.553-1.352 43.224 4.096 13.67 5.443 25.354 14.669 33.572 26.501 8.223 11.837 12.611 25.748 12.611 39.982-0.026 19.079-7.916 37.37-21.939 50.861s-33.039 21.080-52.874 21.101zM512.251 408.499c-4.93 0-9.751 1.408-13.852 4.040-4.101 2.637-7.297 6.385-9.184 10.767s-2.381 9.206-1.419 13.86c0.962 4.654 3.337 8.929 6.824 12.281 3.487 3.355 7.931 5.64 12.768 6.565s9.85 0.451 14.407-1.365c4.557-1.816 8.453-4.89 11.192-8.834 2.739-3.948 4.204-8.581 4.204-13.327-0.005-6.359-2.632-12.462-7.311-16.957-4.675-4.5-11.013-7.025-17.628-7.030zM442.805 875.588l46.31-106.915c1.89-4.374 5.085-8.11 9.18-10.739s8.909-4.031 13.833-4.031c4.925 0 9.738 1.403 13.834 4.031s7.291 6.366 9.18 10.739l46.31 106.915c1.582 3.645 2.202 7.609 1.807 11.54s-1.792 7.708-4.070 10.995c-2.273 3.287-5.361 5.981-8.98 7.843s-7.665 2.836-11.771 2.834h-92.621c-4.106 0.002-8.149-0.971-11.77-2.834s-6.707-4.557-8.984-7.843c-2.277-3.287-3.675-7.064-4.069-10.995s0.227-7.896 1.81-11.54zM609.393 815.335l-28.196-65.108c-5.683-13.113-15.273-24.315-27.561-32.195s-26.726-12.085-41.492-12.085c-14.77 0-29.208 4.205-41.496 12.085s-21.877 19.082-27.558 32.195l-28.2 65.108c-12.292-2.897-24.361-6.314-36.208-10.253l109.721-254.842c15.663 2.906 31.759 2.906 47.421 0l109.722 254.842c-11.807 3.929-23.859 7.347-36.152 10.253z" />
<glyph unicode="&#xe951;" glyph-name="mega-sicbo" horiz-adv-x="896" d="M847.117 731.778l-323.064 187.741c-20.674 11.983-44.146 18.294-68.042 18.294s-47.367-6.311-68.041-18.294l-323.041-187.741c-1.272-0.746-2.327-1.812-3.060-3.092s-1.119-2.73-1.119-4.205c0-1.475 0.386-2.925 1.119-4.205s1.788-2.347 3.060-3.093l386.861-227.573c1.302-0.766 2.784-1.171 4.294-1.171s2.993 0.404 4.294 1.171l386.776 227.573c1.274 0.75 2.323 1.82 3.053 3.102s1.114 2.733 1.107 4.208c-0.006 1.475-0.397 2.924-1.133 4.202s-1.792 2.342-3.066 3.084zM456.022 683.907c-28.029 0-50.769 15.146-50.769 33.846s22.74 33.846 50.769 33.846c28.029 0 50.769-15.146 50.769-33.846s-22.74-33.846-50.769-33.846zM417.923 432.572l-389.23 227.044c-1.286 0.742-2.744 1.133-4.229 1.133s-2.943-0.39-4.229-1.132c-1.286-0.742-2.354-1.809-3.098-3.094s-1.135-2.743-1.137-4.228v-367.907c0.032-17.728 4.704-35.136 13.551-50.496s21.562-28.141 36.879-37.062l343.030-205.677c1.286-0.742 2.744-1.133 4.228-1.133s2.943 0.39 4.23 1.133c1.286 0.742 2.354 1.805 3.098 3.091s1.135 2.746 1.137 4.23v426.776c-0.001 1.484-0.393 2.941-1.136 4.226s-1.81 2.351-3.095 3.093zM117.539 226.976c-18.7 0-33.846 22.746-33.846 50.771 0 28.032 15.146 50.769 33.846 50.769s33.846-22.737 33.846-50.769c0-28.026-15.146-50.771-33.846-50.771zM320.615 294.669c-18.7 0-33.846 22.739-33.846 50.771 0 28.029 15.146 50.769 33.846 50.769s33.846-22.74 33.846-50.769c0-28.031-15.146-50.771-33.846-50.771zM883.334 659.554l-389.229-228.567c-1.282-0.74-2.347-1.804-3.089-3.085s-1.136-2.733-1.141-4.214v-425.173c0.001-1.485 0.394-2.938 1.137-4.224s1.812-2.355 3.098-3.098c1.286-0.736 2.745-1.126 4.229-1.126s2.943 0.39 4.228 1.133l343.007 205.677c15.315 8.915 28.032 21.683 36.883 37.037s13.53 32.755 13.568 50.477v367.78c0.013 1.49-0.371 2.956-1.107 4.25-0.742 1.294-1.811 2.37-3.098 3.119s-2.752 1.144-4.237 1.147c-1.491 0.003-2.957-0.388-4.25-1.133zM591.413 108.518c-18.7 0-33.846 22.739-33.846 50.771 0 28.026 15.146 50.765 33.846 50.765s33.846-22.739 33.846-50.765c0-28.032-15.146-50.771-33.846-50.771zM591.413 294.669c-18.7 0-33.846 22.746-33.846 50.772 0 28.029 15.146 50.769 33.846 50.769s33.846-22.74 33.846-50.769c0-28.026-15.146-50.772-33.846-50.772zM794.49 226.976c-18.701 0-33.843 22.746-33.843 50.771 0 28.032 15.142 50.77 33.843 50.77s33.85-22.738 33.85-50.77c0-28.026-15.149-50.771-33.85-50.771zM794.49 413.133c-18.701 0-33.843 22.74-33.843 50.769s15.142 50.769 33.843 50.769c18.701 0 33.85-22.74 33.85-50.769s-15.149-50.769-33.85-50.769z" />
</font>
</defs>
</svg>
